请选择 进入手机版 | 继续访问电脑版

中国高清论坛

 找回密码
 立即注册
搜索
查看: 3634|回复: 1121

[动作片] 铁血战士/终极战士:掠夺者/铁血战士:血兽进化 The.Predator.2018.BDRip.1080p.7.59G

  [复制链接]

超级版主

高清币
984575
金钱
31278
鲜花
2
在线时间
4178 小时
最后登录
2018-12-19
发表于 2018-12-5 10:21:30 | 显示全部楼层 |阅读模式







◎译  名 铁血战士/终极战士:掠夺者(台)/铁血战士4/铁血战士新续集/铁血战士:血兽进化(港)
◎片  名 The Predator
◎年  代 2018
◎产  地 美国 / 加拿大
◎类  别 动作 / 科幻 / 惊悚 / 冒险
◎语  言 英语 / 西班牙语
◎上映日期 2018-09-07(多伦多电影节) / 2018-09-14(美国) / 2018-10-26(中国大陆)
◎IMDb评分 5.7/10 from 44520 users
◎IMDb链接 http://www.imdb.com/title/tt3829266
◎豆瓣评分 5.0/10 from 22971 users
◎豆瓣链接 https://movie.douban.com/subject/25917789/
◎片  长 107分钟
◎导  演 沙恩·布莱克 Shane Black
◎编  剧 弗莱德·戴克尔 Fred Dekker / 沙恩·布莱克 Shane Black / 吉姆·托马斯 Jim Thomas / 约翰·托马斯 John Thomas
◎主  演 波伊德·霍布鲁克 Boyd Holbrook
      崔凡特·罗兹 Trevante Rhodes
      雅各布·特伦布莱 Jacob Tremblay
      科甘-迈克尔·凯 Keegan-Michael Key
      奥立薇娅·玛恩 Olivia Munn
      斯特林·K·布朗 Sterling K. Brown
      托马斯·简 Thomas Jane
      阿尔菲·艾伦 Alfie Allen
      Augusto Aguilera
      杰克·布塞 Jake Busey
      伊冯娜·斯特拉霍夫斯基 Yvonne Strahovski
      Brian A. Prince
      麦克·多普德 Mike Dopud
      尼尔迈特 Niall Matter
      加里·切克 Gary Chalk
      艾米·阿内克 Emy Aneke
      弗雷泽·艾奇逊 Fraser Aitcheson
      Jan Bos
      洛奇林·莫罗 Lochlyn Munro
      叶芳华 Françoise Yip
      里斯·威廉姆斯 Rhys Williams
      萨奇·布洛克勒班克 Sage Brocklebank
      肖恩·O.罗伯茨 Sean O. Roberts
      柯林·科里根 Colin Corrigan
      帕特里克·萨邦圭 Patrick Sabongui
      弗雷泽·科比特 Fraser Corbett
      阿隆·克拉文 Aaron Craven
      安德鲁·詹金斯 Andrew Jenkins
◎标  签 科幻 | 美国 | 动作 | 外星人 | 2018 | 暴力 | 惊悚 | 恐怖
◎简  介
  一艘宇宙飞船坠落地球,正在执行军事任务的狙击手奎因·麦肯纳(波伊德·霍布鲁克 饰演)恰好遭遇外星人并发生激战,侥幸逃脱的他捡到了外星人的装备并寄回了家想再做他用。传说这种被称为铁血战士的外星人曾数次光临地球,使用各种残忍的手段对人类进行猎杀游戏。而这一次,奎因的儿子罗里收到包裹后意外触发机关,引来了更强大的终极铁血士降临地球。而想要阻止其大开杀戒的却是一群问题士兵和一位生物科学家凯茜·布拉克(奥立薇娅·玛恩 饰演)。事情却远不像他们以为的那样简单,一场铁血、终极铁血与人类之间的三方猎杀大战正式拉响!





The.Predator.2018.BDRip.1080p.mkv_20181206_000133.213.png The.Predator.2018.BDRip.1080p.mkv_20181206_000213.827.png
  1. General

  2. Format                         : Matroska
  3. Format version                 : Version 4 / Version 2
  4. File size                      : 7.59 GiB
  5. Duration                       : 1 h 46 min
  6. Overall bit rate               : 10.2 Mb/s
  7. Encoded date                   : UTC 2018-12-04 09:52:13
  8. Writing application            : mkvmerge v29.0.0 ('Like It Or Not') 64-bit
  9. Writing library                : libebml v1.3.6 + libmatroska v1.4.9

  10. Video
  11. ID                             : 1
  12. Format                         : AVC
  13. Format/Info                    : Advanced Video Codec
  14. Format profile                 : High@L4
  15. Format settings                : CABAC / 1 Ref Frames
  16. Format settings, CABAC         : Yes
  17. Format settings, ReFrames      : 1 frame
  18. Format settings, GOP           : M=1, N=24
  19. Codec ID                       : V_MPEG4/ISO/AVC
  20. Duration                       : 1 h 46 min
  21. Bit rate mode                  : Constant
  22. Bit rate                       : 8 489 kb/s
  23. Nominal bit rate               : 9 281 kb/s
  24. Width                          : 1 920 pixels
  25. Height                         : 800 pixels
  26. Display aspect ratio           : 2.40:1
  27. Frame rate mode                : Constant
  28. Frame rate                     : 23.976 (24000/1001) FPS
  29. Color space                    : YUV
  30. Chroma subsampling             : 4:2:0
  31. Bit depth                      : 8 bits
  32. Scan type                      : Progressive
  33. Bits/(Pixel*Frame)             : 0.231
  34. Stream size                    : 6.34 GiB (84%)
  35. Language                       : English
  36. Default                        : Yes
  37. Forced                         : No
  38. Color range                    : Limited
  39. Color primaries                : BT.709
  40. Transfer characteristics       : BT.709
  41. Matrix coefficients            : BT.709

  42. Audio #1
  43. ID                             : 2
  44. Format                         : AC-3
  45. Format/Info                    : Audio Coding 3
  46. Codec ID                       : A_AC3
  47. Duration                       : 1 h 46 min
  48. Bit rate mode                  : Constant
  49. Bit rate                       : 160 kb/s
  50. Channel(s)                     : 2 channels
  51. Channel positions              : Front: L R
  52. Sampling rate                  : 48.0 kHz
  53. Frame rate                     : 31.250 FPS (1536 SPF)
  54. Bit depth                      : 16 bits
  55. Compression mode               : Lossy
  56. Stream size                    : 122 MiB (2%)
  57. Language                       : Russian
  58. Service kind                   : Complete Main
  59. Default                        : Yes
  60. Forced                         : Yes

  61. Audio #2
  62. ID                             : 3
  63. Format                         : DTS
  64. Format/Info                    : Digital Theater Systems
  65. Codec ID                       : A_DTS
  66. Duration                       : 1 h 46 min
  67. Bit rate mode                  : Constant
  68. Bit rate                       : 1 509 kb/s
  69. Channel(s)                     : 6 channels
  70. Channel positions              : Front: L C R, Side: L R, LFE
  71. Sampling rate                  : 48.0 kHz
  72. Frame rate                     : 93.750 FPS (512 SPF)
  73. Bit depth                      : 16 bits
  74. Compression mode               : Lossy
  75. Stream size                    : 1.13 GiB (15%)
  76. Language                       : English
  77. Default                        : No
  78. Forced                         : No

  79. Text
  80. ID                             : 4
  81. Format                         : UTF-8
  82. Codec ID                       : S_TEXT/UTF8
  83. Codec ID/Info                  : UTF-8 Plain Text
  84. Duration                       : 1 h 38 min
  85. Bit rate                       : 49 b/s
  86. Count of elements              : 1366
  87. Stream size                    : 35.6 KiB (0%)
  88. Language                       : English
  89. Default                        : No
  90. Forced                         : No

  91. Menu
  92. 00:00:00.000                   : en:Chapter 01
  93. 00:02:01.705                   : en:Chapter 02
  94. 00:08:33.930                   : en:Chapter 03
  95. 00:09:46.334                   : en:Chapter 04
  96. 00:13:48.659                   : en:Chapter 05
  97. 00:16:10.174                   : en:Chapter 06
  98. 00:17:37.427                   : en:Chapter 07
  99. 00:20:22.466                   : en:Chapter 08
  100. 00:25:02.954                   : en:Chapter 09
  101. 00:27:37.273                   : en:Chapter 10
  102. 00:31:11.070                   : en:Chapter 11
  103. 00:36:24.341                   : en:Chapter 12
  104. 00:38:01.645                   : en:Chapter 13
  105. 00:39:43.538                   : en:Chapter 14
  106. 00:44:35.704                   : en:Chapter 15
  107. 00:49:16.901                   : en:Chapter 16
  108. 00:53:19.602                   : en:Chapter 17
  109. 00:58:35.500                   : en:Chapter 18
  110. 00:59:59.500                   : en:Chapter 19
  111. 01:03:17.280                   : en:Chapter 20
  112. 01:06:37.812                   : en:Chapter 21
  113. 01:09:52.006                   : en:Chapter 22
  114. 01:12:27.619                   : en:Chapter 23
  115. 01:15:56.619                   : en:Chapter 24
  116. 01:18:53.670                   : en:Chapter 25
  117. 01:21:25.613                   : en:Chapter 26
  118. 01:23:09.924                   : en:Chapter 27
  119. 01:27:09.787                   : en:Chapter 28
  120. 01:30:56.221                   : en:Chapter 29
  121. 01:32:15.799                   : en:Chapter 30
  122. 01:35:09.389                   : en:Chapter 31
  123. 01:40:01.180                   : en:Chapter 32
复制代码








下载地址


下载软件:115,ut,bt彗星,百度离线,迅雷极速.(以上不会自行百度)


游客,如果您要查看本帖隐藏内容请回复



你可能喜欢如下影片










蓝光重编码电影



回复

使用道具 举报

禁止访问

高清币
25
金钱
41
鲜花
0
在线时间
7 小时
最后登录
2018-12-15
发表于 2018-12-7 21:38:30 | 显示全部楼层
提示: 作者被禁止或删除 内容自动屏蔽
回复 支持 1 反对 0

使用道具 举报

跑龙套

高清币
5
金钱
116
鲜花
0
在线时间
27 小时
最后登录
2018-12-18
发表于 4 天前 | 显示全部楼层

这东西我收了!谢谢楼主!中国高清论坛真好!
回复 支持 反对

使用道具 举报

人气偶像

高清币
6
金钱
1217
鲜花
0
在线时间
153 小时
最后登录
2018-12-17
发表于 7 天前 | 显示全部楼层

楼主太厉害了!楼主,电影应该很好看我觉得中国高清论坛真是个好地方!
回复 支持 反对

使用道具 举报

禁止发言

高清币
9038
金钱
9439
鲜花
0
在线时间
543 小时
最后登录
2018-12-18
发表于 7 天前 | 显示全部楼层
提示: 作者被禁止或删除 内容自动屏蔽
回复 支持 反对

使用道具 举报

金鸡奖主角

高清币
1163
金钱
3224
鲜花
0
在线时间
1356 小时
最后登录
2018-12-19
发表于 7 天前 | 显示全部楼层
楼主太厉害了!楼主,电影应该很好看我觉得中国高清论坛真是个好地方!
回复 支持 反对

使用道具 举报

禁止发言

高清币
3042
金钱
3093
鲜花
0
在线时间
167 小时
最后登录
2018-12-18
发表于 7 天前 | 显示全部楼层
提示: 作者被禁止或删除 内容自动屏蔽
回复 支持 反对

使用道具 举报

禁止发言

高清币
9038
金钱
9439
鲜花
0
在线时间
543 小时
最后登录
2018-12-18
发表于 7 天前 | 显示全部楼层
提示: 作者被禁止或删除 内容自动屏蔽
回复 支持 反对

使用道具 举报

禁止发言

高清币
3042
金钱
3093
鲜花
0
在线时间
167 小时
最后登录
2018-12-18
发表于 7 天前 | 显示全部楼层
提示: 作者被禁止或删除 内容自动屏蔽
回复 支持 反对

使用道具 举报

禁止发言

高清币
9038
金钱
9439
鲜花
0
在线时间
543 小时
最后登录
2018-12-18
发表于 7 天前 | 显示全部楼层
提示: 作者被禁止或删除 内容自动屏蔽
回复 支持 反对

使用道具 举报

禁止发言

高清币
3042
金钱
3093
鲜花
0
在线时间
167 小时
最后登录
2018-12-18
发表于 7 天前 | 显示全部楼层
提示: 作者被禁止或删除 内容自动屏蔽
回复 支持 反对

使用道具 举报

懒得打字嘛,点击右侧快捷回复 【右侧内容,后台自定义】
您需要登录后才可以回帖 登录 | 立即注册

本版积分规则

QQ|手机版|小黑屋|中国高清论坛 ( 黔ICP备16007815号-1 )

GMT+8, 2018-12-19 15:17 , Processed in 0.109146 second(s), 32 queries .

Powered by Discuz! X3.4

© 2001-2017 Comsenz Inc.

快速回复 返回顶部 返回列表