请选择 进入手机版 | 继续访问电脑版

中国高清论坛

 找回密码
 立即注册
搜索
查看: 402|回复: 99

[恐怖片] 修女/招魂外传/诡修女(港)/鬼修女(台) The.Nun.2018.Lic.BDRip.1080p.selezen

  [复制链接]

区域版主

高清币
13907
金钱
32695
鲜花
-88
在线时间
10625 小时
最后登录
2018-12-19
发表于 2018-12-6 18:27:53 | 显示全部楼层 |阅读模式



◎译  名 修女/招魂外传/诡修女(港)/鬼修女(台)
◎片  名 The Nun
◎年  代 2018
◎产  地 美国
◎类  别 悬疑 / 惊悚 / 恐怖
◎语  言 英语 / 法语 / 罗马尼亚语 / 拉丁语
◎上映日期 2018-09-07(美国)
◎IMDb评分 5.6/10 from 53628 users
◎IMDb链接 http://www.imdb.com/title/tt5814060
◎豆瓣评分 5.9/10 from 12311 users
◎豆瓣链接 https://movie.douban.com/subject/26825664/
◎片  长 96分钟
◎导  演 科林·哈迪 Corin Hardy
◎编  剧 加里·多伯曼 Gary Dauberman / 温子仁 James Wan
◎主  演 德米安·比齐尔 Demián Bichir
      泰莎·法米加 Taissa Farmiga
      乔纳斯·布洛凯 Jonas Bloquet
      邦妮·阿伦斯 Bonnie Aarons
      维拉·法米加 Vera Farmiga
      帕特里克·威尔森 Patrick Wilson
      英格丽·比苏 Ingrid Bisu
      夏洛特·霍普 Charlotte Hope
      桑德拉·特蕾丝 Sandra Teles
      奥古斯特·马图洛 August Maturo
      迈克尔·史麦利 Michael Smiley
      大卫·霍罗维奇 David Horovitch
      丽丽·博尔丹 Lili Bordán
      斯嘉丽·希克斯 Scarlett Hicks
      丽兹·科菲 Izzie Coffey
      迪·布拉雷·贝克尔 Dee Bradley Baker
      黛布拉·威尔逊 Debra Wilson
      马克·斯达格 Mark Steger
      莉迪亚·科洛科 Lidiya Korotko
      艾玛·阿普尔顿 Emma Appleton
      约翰尼·科瓦内 Jonny Coyne
      Daniel Mandehr
      西蒙·瑞 Simon Rhee
      桑德拉·罗斯科 Sandra Rosko

◎简  介

  一个年轻修女在罗马尼亚与世隔绝的修道院自杀,梵蒂冈派去一名神父和一名快结束见习期的修女展开调查,而神父有令人毛骨悚然的过去。他们一起揭开了教会邪恶的秘密,不仅冒着生命危险,还拿信仰和灵魂当赌注,面临着一股恶毒的力量,恶魔修女再次成为强大的威胁。

  1. General
  2. Unique ID : 272976581248550369105172578279511215080 (0xCD5D608FCE4F38F29470163958DACBE8)
  3. Complete name : D:Video111The.Nun.2018.Lic.BDRip.1080p.selezen.mkv
  4. Format : Matroska
  5. Format version : Version 4
  6. File size : 7.60 GiB
  7. Duration : 1 h 36 min
  8. Overall bit rate : 11.3 Mb/s
  9. Movie name : The Nun 2018 from селезень
  10. Encoded date : UTC 2018-12-06 10:07:17
  11. Writing application : mkvmerge v29.0.0 ('Like It Or Not') 64-bit
  12. Writing library : libebml v1.3.6 + libmatroska v1.4.9

  13. Video
  14. ID : 1
  15. Format : AVC
  16. Format/Info : Advanced Video Codec
  17. Format profile : High@L4.1
  18. Format settings : CABAC / 5 Ref Frames
  19. Format settings, CABAC : Yes
  20. Format settings, ReFrames : 5 frames
  21. Codec ID : V_MPEG4/ISO/AVC
  22. Duration : 1 h 36 min
  23. Bit rate : 10 000 kb/s
  24. Width : 1 920 pixels
  25. Height : 800 pixels
  26. Display aspect ratio : 2.40:1
  27. Frame rate mode : Constant
  28. Frame rate : 23.976 (24000/1001) FPS
  29. Color space : YUV
  30. Chroma subsampling : 4:2:0
  31. Bit depth : 8 bits
  32. Scan type : Progressive
  33. Bits/(Pixel*Frame) : 0.272
  34. Stream size : 6.73 GiB (89%)
  35. Title : selezen
  36. Writing library : x264 core 148 r2705kMod 3f5ed56
  37. Encoding settings : cabac=1 / ref=5 / deblock=1:-2:-2 / analyse=0x3:0x133 / me=umh / subme=11 / psy=1 / fade_compensate=0.00 / psy_rd=1.05:0.07 / mixed_ref=1 / me_range=32 / chroma_me=1 / trellis=2 / 8x8dct=1 / cqm=0 / deadzone=21,11 / fast_pskip=0 / chroma_qp_offset=-3 / threads=12 / lookahead_threads=2 / sliced_threads=0 / nr=0 / decimate=0 / interlaced=0 / bluray_compat=0 / constrained_intra=0 / fgo=0 / bframes=8 / b_pyramid=2 / b_adapt=2 / b_bias=0 / direct=3 / weightb=1 / open_gop=0 / weightp=2 / keyint=240 / keyint_min=23 / scenecut=40 / intra_refresh=0 / rc_lookahead=50 / rc=2pass / mbtree=0 / bitrate=10000 / ratetol=1.0 / qcomp=0.60 / qpmin=0 / qpmax=51 / qpstep=4 / cplxblur=20.0 / qblur=0.5 / vbv_maxrate=50000 / vbv_bufsize=62500 / nal_hrd=none / filler=0 / ip_ratio=1.40 / pb_ratio=1.30 / aq=3:0.80
  38. Language : English
  39. Default : Yes
  40. Forced : No

  41. Audio #1
  42. ID : 2
  43. Format : AC-3
  44. Format/Info : Audio Coding 3
  45. Commercial name : Dolby Digital
  46. Codec ID : A_AC3
  47. Duration : 1 h 36 min
  48. Bit rate mode : Constant
  49. Bit rate : 640 kb/s
  50. Channel(s) : 6 channels
  51. Channel layout : L R C LFE Ls Rs
  52. Sampling rate : 48.0 kHz
  53. Frame rate : 31.250 FPS (1536 SPF)
  54. Bit depth : 16 bits
  55. Compression mode : Lossy
  56. Stream size : 442 MiB (6%)
  57. Title : Dub [License]
  58. Language : Russian
  59. Service kind : Complete Main
  60. Default : Yes
  61. Forced : Yes

  62. Audio #2
  63. ID : 3
  64. Format : AC-3
  65. Format/Info : Audio Coding 3
  66. Commercial name : Dolby Digital
  67. Codec ID : A_AC3
  68. Duration : 1 h 36 min
  69. Bit rate mode : Constant
  70. Bit rate : 192 kb/s
  71. Channel(s) : 2 channels
  72. Channel layout : L R
  73. Sampling rate : 48.0 kHz
  74. Frame rate : 31.250 FPS (1536 SPF)
  75. Bit depth : 16 bits
  76. Compression mode : Lossy
  77. Stream size : 133 MiB (2%)
  78. Title : Dub
  79. Language : Ukrainian
  80. Service kind : Complete Main
  81. Default : No
  82. Forced : No

  83. Audio #3
  84. ID : 4
  85. Format : AC-3
  86. Format/Info : Audio Coding 3
  87. Commercial name : Dolby Digital
  88. Codec ID : A_AC3
  89. Duration : 1 h 36 min
  90. Bit rate mode : Constant
  91. Bit rate : 448 kb/s
  92. Channel(s) : 6 channels
  93. Channel layout : L R C LFE Ls Rs
  94. Sampling rate : 48.0 kHz
  95. Frame rate : 31.250 FPS (1536 SPF)
  96. Bit depth : 16 bits
  97. Compression mode : Lossy
  98. Stream size : 309 MiB (4%)
  99. Title : Original
  100. Language : English
  101. Service kind : Complete Main
  102. Default : No
  103. Forced : No

  104. Text #1
  105. ID : 5
  106. Format : UTF-8
  107. Codec ID : S_TEXT/UTF8
  108. Codec ID/Info : UTF-8 Plain Text
  109. Duration : 1 h 29 min
  110. Bit rate : 0 b/s
  111. Count of elements : 19
  112. Stream size : 632 Bytes (0%)
  113. Title : Forced
  114. Language : Russian
  115. Default : Yes
  116. Forced : Yes

  117. Text #2
  118. ID : 6
  119. Format : UTF-8
  120. Codec ID : S_TEXT/UTF8
  121. Codec ID/Info : UTF-8 Plain Text
  122. Duration : 1 h 35 min
  123. Bit rate : 51 b/s
  124. Count of elements : 644
  125. Stream size : 35.7 KiB (0%)
  126. Title : Full
  127. Language : Russian
  128. Default : No
  129. Forced : No

  130. Text #3
  131. ID : 7
  132. Format : UTF-8
  133. Codec ID : S_TEXT/UTF8
  134. Codec ID/Info : UTF-8 Plain Text
  135. Duration : 1 h 35 min
  136. Bit rate : 0 b/s
  137. Count of elements : 19
  138. Stream size : 672 Bytes (0%)
  139. Title : Forced
  140. Language : Ukrainian
  141. Default : No
  142. Forced : No

  143. Text #4
  144. ID : 8
  145. Format : UTF-8
  146. Codec ID : S_TEXT/UTF8
  147. Codec ID/Info : UTF-8 Plain Text
  148. Duration : 1 h 30 min
  149. Bit rate : 30 b/s
  150. Count of elements : 639
  151. Stream size : 20.4 KiB (0%)
  152. Title : Full
  153. Language : English
  154. Default : No
  155. Forced : No

  156. Text #5
  157. ID : 9
  158. Format : UTF-8
  159. Codec ID : S_TEXT/UTF8
  160. Codec ID/Info : UTF-8 Plain Text
  161. Duration : 1 h 35 min
  162. Bit rate : 38 b/s
  163. Count of elements : 942
  164. Stream size : 27.1 KiB (0%)
  165. Title : SDH
  166. Language : English
  167. Default : No
  168. Forced : No

  169. Menu
  170. 00:00:00.000 : en:00:00:00.000
  171. 00:08:42.772 : en:00:08:42.772
  172. 00:17:55.074 : en:00:17:55.074
  173. 00:29:17.506 : en:00:29:17.506
  174. 00:38:05.033 : en:00:38:05.033
  175. 00:48:49.802 : en:00:48:49.802
  176. 00:58:49.192 : en:00:58:49.192
  177. 01:09:16.944 : en:01:09:16.944
  178. 01:18:14.565 : en:01:18:14.565
  179. 01:24:18.637 : en:01:24:18.637
  180. 01:32:30.295 : en:01:32:30.295
复制代码



游客,如果您要查看本帖隐藏内容请回复


回复

使用道具 举报

人气偶像

高清币
2
金钱
1501
鲜花
0
在线时间
470 小时
最后登录
2018-12-18
发表于 2018-12-6 18:29:17 | 显示全部楼层

楼主太厉害了!楼主,电影应该很好看我觉得中国高清论坛真是个好地方!
回复 支持 反对

使用道具 举报

金鸡奖主角

高清币
945
金钱
3686
鲜花
0
在线时间
526 小时
最后登录
2018-12-17
发表于 2018-12-6 18:35:14 | 显示全部楼层
楼主发贴辛苦了,谢谢楼主分享!我觉得中国高清论坛是注册对了!
回复 支持 反对

使用道具 举报

人气偶像

高清币
9
金钱
1382
鲜花
0
在线时间
258 小时
最后登录
2018-12-19
发表于 2018-12-6 18:35:22 | 显示全部楼层

这东西我收了!谢谢楼主!中国高清论坛真好!
回复 支持 反对

使用道具 举报

金鸡奖主角

高清币
72
金钱
5785
鲜花
0
在线时间
1227 小时
最后登录
2018-12-19
发表于 2018-12-6 18:40:08 | 显示全部楼层

其实我一直觉得楼主的品味不错!呵呵!中国高清论坛太棒了!
回复 支持 反对

使用道具 举报

影坛巨星

高清币
2901
金钱
6838
鲜花
0
在线时间
1151 小时
最后登录
2018-12-18
发表于 2018-12-6 18:43:45 | 显示全部楼层
楼主发贴辛苦了,谢谢楼主分享!我觉得中国高清论坛是注册对了!
回复 支持 反对

使用道具 举报

人气偶像

高清币
123
金钱
1557
鲜花
0
在线时间
242 小时
最后登录
2018-12-19
发表于 2018-12-6 18:44:34 | 显示全部楼层

楼主太厉害了!楼主,电影应该很好看我觉得中国高清论坛真是个好地方!
回复 支持 反对

使用道具 举报

天王巨星

高清币
285
金钱
1510
鲜花
0
在线时间
85 小时
最后登录
2018-12-19
发表于 2018-12-6 18:46:15 | 显示全部楼层
谢谢楼主分享
回复 支持 反对

使用道具 举报

永恒神话

高清币
20841
金钱
24413
鲜花
0
在线时间
1152 小时
最后登录
2018-12-19
发表于 2018-12-6 18:49:33 | 显示全部楼层

这个帖子不回对不起自己!我想我是一天也不能离开中国高清论坛
回复 支持 反对

使用道具 举报

superstar

高清币
6147
金钱
7964
鲜花
0
在线时间
1174 小时
最后登录
2018-12-19
发表于 2018-12-6 18:52:19 | 显示全部楼层

楼主,大恩不言谢了!中国高清论坛是最棒的!
回复 支持 反对

使用道具 举报

懒得打字嘛,点击右侧快捷回复 【右侧内容,后台自定义】
您需要登录后才可以回帖 登录 | 立即注册

本版积分规则

QQ|手机版|小黑屋|中国高清论坛 ( 黔ICP备16007815号-1 )

GMT+8, 2018-12-19 20:09 , Processed in 0.099872 second(s), 30 queries .

Powered by Discuz! X3.4

© 2001-2017 Comsenz Inc.

快速回复 返回顶部 返回列表