请选择 进入手机版 | 继续访问电脑版

中国高清论坛

 找回密码
 立即注册
搜索
查看: 752|回复: 171

[惊悚片] 一定要抓住 The.Chase.2017.KOERAN.DC.1080p.BluRay.x264.DTS-WiKi

  [复制链接]

区域版主

高清币
13907
金钱
32695
鲜花
-88
在线时间
10625 小时
最后登录
2018-12-19
发表于 2018-12-6 19:11:17 | 显示全部楼层 |阅读模式



◎译  名 一定要抓住
◎片  名 The Chase/반드시 잡는다
◎年  代 2017
◎国  家 韩国
◎类  别 剧情/惊悚
◎语  言 韩语
◎IMDb评分 6.5/10 from 513 users
◎IMDb链接 http://www.imdb.com/title/tt8088944
◎片  长 2 h 2 min
◎导  演 金泓善 Hong-sun Kim
◎主  演 白润植 Yun-shik Baek
      成东日 Dong-il Sung
      千虎珍 Ho-jin Jeon
      裴宗玉 Chong-ok Bae
      赵达焕 Dal-hwan Jo
      朴亨洙 Park Hyoung-soo
      孙钟学 Jong-Hak Son
      李坎熙 Lee Kan-hee
      朴智賢 Park Ji-hyun
      金思英 Kim Si-yeong
      吴熙俊 Hee-joon Oh
      高圭弼 Ko Kyu-pil
      金善荷 Kim Seon-ha
      吴炽垣 Chi-woon Oh
      申文成 Mun-sung Shin
      金民尚 Kim Min-sang
      李民雄 Min-woong Lee
      孙成灿 Son Seong-chan
      刘在明 Jae-myung Yoo
      郑侑敏 Yoo-min Jung


◎简  介

  电影讲述了追踪未结案事件凶手的故事。杀人案再次发生,犯罪手法竟然与30年前一起未结案事件一模一样。非常了解小区的老人和非常了解事件的前职刑 警用直觉与感觉开始追踪凶手....
  1. Video
  2. ID : 1
  3. Format : AVC
  4. Format/Info : Advanced Video Codec
  5. Format profile : High@L4.1
  6. Format settings : CABAC / 5 Ref Frames
  7. Format settings, CABAC : Yes
  8. Format settings, ReFrames : 5 frames
  9. Codec ID : V_MPEG4/ISO/AVC
  10. Duration : 2 h 2 min
  11. Bit rate : 13.5 Mb/s
  12. Width : 1 920 pixels
  13. Height : 804 pixels
  14. Display aspect ratio : 2.40:1
  15. Frame rate mode : Constant
  16. Frame rate : 23.976 (24000/1001) FPS
  17. Color space : YUV
  18. Chroma subsampling : 4:2:0
  19. Bit depth : 8 bits
  20. Scan type : Progressive
  21. Bits/(Pixel*Frame) : 0.365
  22. Stream size : 11.5 GiB (90%)
  23. Writing library : x264 core 155 r2867+82 a249126 t_mod_Custom_2 [8-bit@all X86_64]
  24. Encoding settings : cabac=1 / ref=5 / deblock=1:-3:-3 / analyse=0x3:0x133 / me=umh / subme=10 / psy=1 / fade_compensate=0.00 / psy_rd=1.00:0.00 / mixed_ref=1 / me_range=32 / chroma_me=1 / trellis=2 / 8x8dct=1 / cqm=0 / deadzone=21,11 / fast_pskip=0 / chroma_qp_offset=-2 / threads=12 / lookahead_threads=2 / sliced_threads=0 / nr=0 / decimate=0 / interlaced=0 / bluray_compat=0 / constrained_intra=0 / fgo=0 / bframes=9 / b_pyramid=2 / b_adapt=2 / b_bias=0 / direct=3 / weightb=1 / open_gop=0 / weightp=2 / keyint=250 / keyint_min=23 / scenecut=40 / intra_refresh=0 / rc_lookahead=60 / rc=crf / mbtree=0 / crf=17.1000 / qcomp=0.60 / qpmin=0:0:0 / qpmax=69:69:69 / qpstep=4 / vbv_maxrate=62500 / vbv_bufsize=78125 / crf_max=0.0 / nal_hrd=none / filler=0 / ip_ratio=1.40 / pb_ratio=1.30 / aq=3:0.80 / aq-sensitivity=10.00 / aq-factor=1.00:1.00:1.00 / aq2=0 / aq3=0 / zones=324,848,crf=14.5
  25. Default : Yes
  26. Forced : No

  27. Audio
  28. ID : 2
  29. Format : DTS
  30. Format/Info : Digital Theater Systems
  31. Codec ID : A_DTS
  32. Duration : 2 h 2 min
  33. Bit rate mode : Constant
  34. Bit rate : 1 509 kb/s
  35. Channel(s) : 6 channels
  36. Channel layout : C L R Ls Rs LFE
  37. Sampling rate : 48.0 kHz
  38. Frame rate : 93.750 FPS (512 SPF)
  39. Bit depth : 24 bits
  40. Compression mode : Lossy
  41. Stream size : 1.29 GiB (10%)
  42. Language : Korean
  43. Default : Yes
  44. Forced : No

  45. Text
  46. ID : 3
  47. Format : UTF-8
  48. Codec ID : S_TEXT/UTF8
  49. Codec ID/Info : UTF-8 Plain Text
  50. Duration : 1 h 57 min
  51. Bit rate : 35 b/s
  52. Count of elements : 1293
  53. Stream size : 31.0 KiB (0%)
  54. Language : English
  55. Default : Yes
  56. Forced : Yes

  57. Menu
  58. 00:00:00.000 : en:00:00:00.000
  59. 00:09:38.828 : en:00:09:38.828
  60. 00:20:06.789 : en:00:20:06.789
  61. 00:29:39.736 : en:00:29:39.736
  62. 00:37:26.661 : en:00:37:26.661
  63. 00:47:06.198 : en:00:47:06.198
  64. 00:53:12.898 : en:00:53:12.898
  65. 01:01:10.292 : en:01:01:10.292
  66. 01:09:07.643 : en:01:09:07.643
  67. 01:16:44.642 : en:01:16:44.642
  68. 01:23:15.908 : en:01:23:15.908
  69. 01:32:59.282 : en:01:32:59.282
  70. 01:40:26.187 : en:01:40:26.187
  71. 01:45:56.809 : en:01:45:56.809
  72. 01:50:39.424 : en:01:50:39.424
  73. 01:56:27.189 : en:01:56:27.189
复制代码







游客,如果您要查看本帖隐藏内容请回复
回复

使用道具 举报

金鸡奖主角

高清币
1104
金钱
3872
鲜花
0
在线时间
1047 小时
最后登录
2018-12-19
发表于 2018-12-6 19:12:36 | 显示全部楼层

论坛不能没有像楼主这样的人才啊!我会一直支持中国高清论坛
回复 支持 反对

使用道具 举报

金鸡奖主角

高清币
1645
金钱
2262
鲜花
0
在线时间
230 小时
最后登录
2018-12-19
发表于 2018-12-6 19:14:20 | 显示全部楼层

楼主太厉害了!楼主,电影应该很好看我觉得中国高清论坛真是个好地方!
回复 支持 反对

使用道具 举报

永恒神话

高清币
7779
金钱
11509
鲜花
0
在线时间
637 小时
最后登录
2018-12-19
发表于 2018-12-6 19:28:01 | 显示全部楼层
感谢楼主分享精彩电影!
回复 支持 反对

使用道具 举报

superstar

高清币
2959
金钱
10335
鲜花
0
在线时间
898 小时
最后登录
2018-12-19
发表于 2018-12-6 19:33:35 | 显示全部楼层
楼主发贴辛苦了,谢谢楼主分享!我觉得中国高清论坛是注册对了!
回复 支持 反对

使用道具 举报

超级明星

高清币
2887
金钱
4872
鲜花
0
在线时间
889 小时
最后登录
2018-12-19
发表于 2018-12-6 19:33:56 | 显示全部楼层
楼主发贴辛苦了,谢谢楼主分享!我觉得中国高清论坛是注册对了!
回复 支持 反对

使用道具 举报

知名艺人

高清币
24
金钱
143
鲜花
0
在线时间
23 小时
最后登录
2018-12-18
发表于 2018-12-6 19:34:15 | 显示全部楼层
楼主发贴辛苦了,谢谢楼主分享!我觉得中国高清论坛是注册对了!
回复 支持 反对

使用道具 举报

人气偶像

高清币
240
金钱
1439
鲜花
0
在线时间
228 小时
最后登录
2018-12-19
发表于 2018-12-6 19:34:18 | 显示全部楼层

楼主太厉害了!楼主,电影应该很好看我觉得中国高清论坛真是个好地方!
回复 支持 反对

使用道具 举报

天王巨星

高清币
47
金钱
2201
鲜花
0
在线时间
226 小时
最后登录
2018-12-17
发表于 2018-12-6 19:35:19 | 显示全部楼层

我看不错噢 谢谢楼主!中国高清论坛越来越好!
回复 支持 反对

使用道具 举报

金鸡奖主角

高清币
1117
金钱
3688
鲜花
0
在线时间
280 小时
最后登录
2018-12-17
发表于 2018-12-6 19:35:20 | 显示全部楼层
每天都来中国高清论坛看看有什么电影!
回复 支持 反对

使用道具 举报

懒得打字嘛,点击右侧快捷回复 【右侧内容,后台自定义】
您需要登录后才可以回帖 登录 | 立即注册

本版积分规则

QQ|手机版|小黑屋|中国高清论坛 ( 黔ICP备16007815号-1 )

GMT+8, 2018-12-19 16:03 , Processed in 0.098946 second(s), 30 queries .

Powered by Discuz! X3.4

© 2001-2017 Comsenz Inc.

快速回复 返回顶部 返回列表