请选择 进入手机版 | 继续访问电脑版

中国高清论坛

 找回密码
 立即注册
搜索
查看: 831|回复: 161

[动作片] 毒牙狱警 Fanged.Up.2018.1080p.AMZN.WEB-DL.DDP5.1.H264-CMRG 4.7GB

  [复制链接]

超级版主

高清币
985163
金钱
31300
鲜花
2
在线时间
4178 小时
最后登录
2018-12-19
发表于 2018-12-6 21:48:17 | 显示全部楼层 |阅读模式








◎译  名 
◎片  名 Fanged Up
◎年  代 2017
◎产  地 英国
◎类  别 喜剧 / 恐怖
◎语  言 英语
◎上映日期 2017-10-31(英国)
◎IMDb评分 8.3/10 from 1259 users
◎IMDb链接 http://www.imdb.com/title/tt5078886
◎豆瓣评分 0/10 from 0 users
◎豆瓣链接 https://movie.douban.com/subject/27056439/
◎导  演 克里斯蒂安·詹姆斯 Christian James
◎编  剧 尼克·耐文 Nick Nevern / Daniel O'Reilly / Dan Palmer
◎主  演 劳伦·索恰 Lauren Socha
      史蒂文·伯克夫 Steven Berkoff
      瓦斯·布莱克伍德 Vas Blackwood
◎标  签 英國 | ChristianJames
◎简  介
  A young rogue is thrown into prison for the weekend, unaware that the guards are blood-sucking vampires and the inmates are their victims.

















  1. Video
  2. ID : 1
  3. Format : AVC
  4. Format/Info : Advanced Video Codec
  5. Format profile : High@L4
  6. Format settings : CABAC / 4 Ref Frames
  7. Format settings, CABAC : Yes
  8. Format settings, ReFrames : 4 frames
  9. Codec ID : V_MPEG4/ISO/AVC
  10. Duration : 1 h 28 min
  11. Bit rate : 7 020 kb/s
  12. Width : 1 920 pixels
  13. Height : 816 pixels
  14. Display aspect ratio : 2.35:1
  15. Frame rate mode : Constant
  16. Frame rate : 24.000 FPS
  17. Color space : YUV
  18. Chroma subsampling : 4:2:0
  19. Bit depth : 8 bits
  20. Scan type : Progressive
  21. Bits/(Pixel*Frame) : 0.187
  22. Stream size : 4.32 GiB (92%)
  23. Default : Yes
  24. Forced : No
  25. Color range : Limited
  26. Color primaries : BT.709
  27. Transfer characteristics : BT.709
  28. Matrix coefficients : BT.709

  29. Audio
  30. ID : 2
  31. Format : E-AC-3
  32. Format/Info : Enhanced AC-3
  33. Commercial name : Dolby Digital Plus
  34. Codec ID : A_EAC3
  35. Duration : 1 h 28 min
  36. Bit rate mode : Constant
  37. Bit rate : 640 kb/s
  38. Channel(s) : 6 channels
  39. Channel layout : L R C LFE Ls Rs
  40. Sampling rate : 48.0 kHz
  41. Frame rate : 31.250 FPS (1536 SPF)
  42. Compression mode : Lossy
  43. Stream size : 403 MiB (8%)
  44. Title : English
  45. Language : English
  46. Service kind : Complete Main
  47. Default : Yes
  48. Forced : No

复制代码







下载地址


下载软件:115,ut,bt彗星,百度离线,迅雷极速.(以上不会自行百度)



游客,如果您要查看本帖隐藏内容请回复





数字高清电影






回复

使用道具 举报

知名艺人

高清币
9
金钱
420
鲜花
0
在线时间
47 小时
最后登录
2018-12-18
发表于 2018-12-6 21:50:40 | 显示全部楼层

这个帖子不回对不起自己!我想我是一天也不能离开中国高清论坛
回复 支持 反对

使用道具 举报

永恒神话

高清币
35021
金钱
67990
鲜花
0
在线时间
5421 小时
最后登录
2018-12-19
发表于 2018-12-6 21:50:56 | 显示全部楼层

这个帖子不回对不起自己!我想我是一天也不能离开中国高清论坛
回复 支持 反对

使用道具 举报

知名艺人

高清币
71
金钱
578
鲜花
0
在线时间
62 小时
最后登录
2018-12-19
发表于 2018-12-6 21:51:49 | 显示全部楼层
谢谢楼主分享。
回复 支持 反对

使用道具 举报

天王巨星

高清币
20
金钱
2560
鲜花
0
在线时间
775 小时
最后登录
2018-12-18
发表于 2018-12-6 21:52:54 | 显示全部楼层
楼主发贴辛苦了,谢谢楼主分享!我觉得中国高清论坛是注册对了!
回复 支持 反对

使用道具 举报

人气偶像

高清币
158
金钱
727
鲜花
0
在线时间
101 小时
最后登录
2018-12-19
发表于 2018-12-6 21:53:13 | 显示全部楼层

这个帖子不回对不起自己!我想我是一天也不能离开中国高清论坛
回复 支持 反对

使用道具 举报

超级明星

高清币
1441
金钱
8374
鲜花
0
在线时间
1319 小时
最后登录
2018-12-19
发表于 2018-12-6 21:54:06 | 显示全部楼层
顶楼主啦..希望楼主多发精品好帖啦.....
回复 支持 反对

使用道具 举报

金鸡奖主角

高清币
474
金钱
3838
鲜花
0
在线时间
715 小时
最后登录
2018-12-18
发表于 2018-12-6 21:56:08 | 显示全部楼层
我看不错噢 谢谢楼主!
回复 支持 反对

使用道具 举报

知名艺人

高清币
22
金钱
581
鲜花
0
在线时间
65 小时
最后登录
2018-12-19
发表于 2018-12-6 21:56:14 | 显示全部楼层

楼主太厉害了!楼主,电影应该很好看我觉得中国高清论坛真是个好地方!
回复 支持 反对

使用道具 举报

人气偶像

高清币
108
金钱
1474
鲜花
0
在线时间
311 小时
最后登录
2018-12-18
发表于 2018-12-6 21:56:24 | 显示全部楼层

我看不错噢 谢谢楼主!中国高清论坛越来越好!
回复 支持 反对

使用道具 举报

懒得打字嘛,点击右侧快捷回复 【右侧内容,后台自定义】
您需要登录后才可以回帖 登录 | 立即注册

本版积分规则

QQ|手机版|小黑屋|中国高清论坛 ( 黔ICP备16007815号-1 )

GMT+8, 2018-12-19 19:07 , Processed in 0.521733 second(s), 31 queries .

Powered by Discuz! X3.4

© 2001-2017 Comsenz Inc.

快速回复 返回顶部 返回列表