请选择 进入手机版 | 继续访问电脑版

中国高清论坛

 找回密码
 立即注册
搜索
查看: 533|回复: 83

[剧情片] 舍赫拉查德/塞埃哈萨德 Sheherazade.2018.FRENCH.1080p.WEB.x264-PREUMS 3.71 GiB

  [复制链接]

超级版主

高清币
15218
金钱
35547
鲜花
-88
在线时间
11221 小时
最后登录
2019-3-21
发表于 2019-1-11 17:27:13 | 显示全部楼层 |阅读模式



◎译  名 舍赫拉查德/塞埃哈萨德
◎片  名 Shéhérazade
◎年  代 2018
◎国  家 法国
◎类  别 剧情/爱情/惊悚
◎语  言 法语
◎IMDb评分 7.2/10 from 217 users
◎IMDB链接 https://www.imdb.com/title/tt8459250/
◎片  长 1 h 46 min
◎导  演 让-贝尔纳·马赫兰 Jean-Bernard Marlin
◎主  演 Dylan Robert
       Kenza Fortas
       Idir Azougli



◎简  介

  Zachary, 17 ans, sort de prison. Rejeté par sa mère, il traîne dans les quartiers populaires de Marseille. C'est là qu'il rencontre Shéhérazade.

  1. General
  2. Unique ID                      : 259496160473675894085754577204321522222 (0xC3392480D79DFE857C1C98AE5D25122E)
  3. Complete name                  : E:\迅雷下载\[ GkTorrent.bz ] Sheherazade.2018.FRENCH.1080p.WEB.x264-PREUMS.mkv
  4. Format                         : Matroska
  5. Format version                 : Version 4
  6. File size                      : 3.71 GiB
  7. Duration                       : 1 h 46 min
  8. Overall bit rate               : 4 977 kb/s
  9. Encoded date                   : UTC 2019-01-11 06:17:56
  10. Writing application            : mkvmerge v29.0.0 ('Like It Or Not') 64-bit
  11. Writing library                : libebml v1.3.6 + libmatroska v1.4.9
  12. FileExtension_Invalid          : mkv mk3d mka mks

  13. Video
  14. ID                             : 1
  15. Format                         : AVC
  16. Format/Info                    : Advanced Video Codec
  17. Format profile                 : High@L4
  18. Format settings                : CABAC / 5 Ref Frames
  19. Format settings, CABAC         : Yes
  20. Format settings, ReFrames      : 5 frames
  21. Codec ID                       : V_MPEG4/ISO/AVC
  22. Duration                       : 1 h 46 min
  23. Bit rate                       : 4 494 kb/s
  24. Width                          : 1 912 pixels
  25. Height                         : 800 pixels
  26. Display aspect ratio           : 2.40:1
  27. Frame rate mode                : Constant
  28. Frame rate                     : 25.000 FPS
  29. Color space                    : YUV
  30. Chroma subsampling             : 4:2:0
  31. Bit depth                      : 8 bits
  32. Scan type                      : Progressive
  33. Bits/(Pixel*Frame)             : 0.118
  34. Stream size                    : 3.35 GiB (90%)
  35. Language                       : French
  36. Default                        : Yes
  37. Forced                         : No
  38. Color range                    : Limited
  39. Color primaries                : BT.709
  40. Transfer characteristics       : BT.709
  41. Matrix coefficients            : BT.709

  42. Audio
  43. ID                             : 2
  44. Format                         : AC-3
  45. Format/Info                    : Audio Coding 3
  46. Commercial name                : Dolby Digital
  47. Codec ID                       : A_AC3
  48. Duration                       : 1 h 46 min
  49. Bit rate mode                  : Constant
  50. Bit rate                       : 384 kb/s
  51. Channel(s)                     : 6 channels
  52. Channel layout                 : L R C LFE Ls Rs
  53. Sampling rate                  : 48.0 kHz
  54. Frame rate                     : 31.250 FPS (1536 SPF)
  55. Bit depth                      : 16 bits
  56. Compression mode               : Lossy
  57. Stream size                    : 293 MiB (8%)
  58. Title                          : French 5.1 AC3
  59. Language                       : French
  60. Service kind                   : Complete Main
  61. Default                        : Yes
  62. Forced                         : No

  63. Menu
  64. 00:00:00.000                   : en:Chapitre 01
  65. 00:10:00.000                   : en:Chapitre 02
  66. 00:20:00.000                   : en:Chapitre 03
  67. 00:30:00.000                   : en:Chapitre 04
  68. 00:40:00.000                   : en:Chapitre 05
  69. 00:50:00.000                   : en:Chapitre 06
  70. 01:00:00.000                   : en:Chapitre 07
  71. 01:10:00.000                   : en:Chapitre 08
  72. 01:20:00.000                   : en:Chapitre 09
  73. 01:30:00.000                   : en:Chapitre 10

复制代码


游客,如果您要查看本帖隐藏内容请回复


回复

使用道具 举报

永恒神话

高清币
4266
金钱
12266
鲜花
0
在线时间
1810 小时
最后登录
2019-3-20
发表于 2019-1-11 17:44:48 | 显示全部楼层
支持一下下高清论坛


回复 支持 反对

使用道具 举报

金鸡奖主角

高清币
99
金钱
3411
鲜花
0
在线时间
683 小时
最后登录
2019-3-21
发表于 2019-1-11 17:50:08 | 显示全部楼层

我看不错噢 谢谢楼主!中国高清论坛越来越好!
回复 支持 反对

使用道具 举报

永恒神话

高清币
36923
金钱
72203
鲜花
0
在线时间
5950 小时
最后登录
2019-3-20
发表于 2019-1-11 18:00:21 | 显示全部楼层

这东西我收了!谢谢楼主!中国高清论坛真好!
回复 支持 反对

使用道具 举报

金鸡奖主角

高清币
850
金钱
2447
鲜花
0
在线时间
335 小时
最后登录
2019-3-20
发表于 2019-1-11 18:04:06 | 显示全部楼层
谢谢楼主分享
回复 支持 反对

使用道具 举报

金鸡奖主角

高清币
848
金钱
5521
鲜花
0
在线时间
1023 小时
最后登录
2019-3-20
发表于 2019-1-11 18:05:28 | 显示全部楼层
楼主发贴辛苦了,谢谢楼主分享!我觉得中国高清论坛是注册对了!
回复 支持 反对

使用道具 举报

超级明星

高清币
1226
金钱
5893
鲜花
0
在线时间
1884 小时
最后登录
2019-3-20
发表于 2019-1-11 18:06:18 | 显示全部楼层

这个帖子不回对不起自己!我想我是一天也不能离开中国高清论坛
回复 支持 反对

使用道具 举报

金鸡奖主角

高清币
735
金钱
3977
鲜花
0
在线时间
547 小时
最后登录
2019-3-20
发表于 2019-1-11 18:18:35 | 显示全部楼层
楼主发贴辛苦了,谢谢楼主分享!我觉得中国高清论坛是注册对了!
回复 支持 反对

使用道具 举报

永恒神话

高清币
4938
金钱
20740
鲜花
0
在线时间
2581 小时
最后登录
2019-3-20
发表于 2019-1-11 18:21:13 | 显示全部楼层
谢楼主分享,有你更精彩
回复 支持 反对

使用道具 举报

跑龙套

高清币
1
金钱
19
鲜花
0
在线时间
3 小时
最后登录
2019-2-6
发表于 2019-1-11 18:21:55 | 显示全部楼层

楼主太厉害了!楼主,电影应该很好看我觉得中国高清论坛真是个好地方!
回复 支持 反对

使用道具 举报

懒得打字嘛,点击右侧快捷回复 【右侧内容,后台自定义】
您需要登录后才可以回帖 登录 | 立即注册

本版积分规则

QQ|手机版|小黑屋|中国高清论坛 ( 黔ICP备16007815号-1 )

GMT+8, 2019-3-21 02:02 , Processed in 0.104435 second(s), 29 queries .

Powered by Discuz! X3.4

© 2001-2017 Comsenz Inc.

快速回复 返回顶部 返回列表