请选择 进入手机版 | 继续访问电脑版

中国高清论坛

 找回密码
 立即注册
搜索
查看: 1409|回复: 263

[惊悚片] 下女/女佣/侍女 The.Housemaid.2010.LIMITED.1080p.BluRay.x264-GiMCHi 7.65 GiB

  [复制链接]

超级版主

高清币
15218
金钱
35547
鲜花
-88
在线时间
11221 小时
最后登录
2019-3-21
发表于 2019-1-11 18:17:06 | 显示全部楼层 |阅读模式


◎译  名 下女/女佣/侍女
◎片  名 The Housemaid
◎年  代 2010
◎国  家 韩国
◎类  别 惊悚
◎语  言 韩语
◎IMDB评分 6.7/10 (1,050 votes)
◎IMDB链接 http://www.imdb.com/title/tt1314652/
◎片  长 1 h 47 min
◎导  演 林常树 Sang-soo Im
◎主  演 全度妍 Do-yeon Jeon
       李政宰 Jung-jae Lee
       尹茹贞 Yeo-jong Yun
       徐雨 Yoo Seo

◎简  介 


  如白纸一样纯粹的女子恩伊(全度妍饰)憧憬上流社会的贵族生活,拿着幼儿教育专业毕业证书原本在小餐馆打工的她来到一家豪宅应聘佣人一职。

  大宅主人勋(李政宰饰)是一个近乎完美的男人,弹得一手好钢琴,和怀有双胞胎的太太海拉(徐雨饰)、6岁的女儿娜美、总管家秉夕(尹茹贞饰)等人构成了这家最主要的成员,面试成功的恩伊开始了与陌生的他们同一屋檐下的生活。

  对下人态度亲切、风度翩翩的勋很快地吸引住恩伊的目光,后者渐渐羡慕起女主人的生活。某天,勋带着一家子到别墅度假,背着怀孕的太太与恩伊开始了诱惑的"肉体对话",恩伊沉迷于这种危险而幸福的滋味。两人的关系慢慢被秉夕察觉,这个原本"和谐"的家庭开始飘散着莫名的紧张感。恩伊和勋的关系最终还是没能瞒过海拉,他们交错的欲望酿成不可收拾的结局……

一句话评论

全度妍和李政宰的脱戏殉和对白昔尺度打大胆,而且没脱的时候比脱的时候更刺激。悬念惊悚片所特有的元素和伏笔的紧张感相对不足,但是演员把失控的欲望展现得淋漓尽致。

--《朝鲜日报》

可口,充满了黑色幽默,但过于矫揉造作,《下女》是对六十年代同名影片的一次聪明但空洞的翻拍。

--《每日银幕》

《下女》是韩国正在拍当今世界上最好的一批电影的出色的进一步的证据。

--罗杰·艾伯特

幕后制作

  2010年版的《下女》改编自已故导演金绮泳1960年的同名作品,讲述为了爬上上流社会终于来到贵族家庭当侍女的女主角与男主人偷情的故事。该片请来影后全度妍与性感男星李政宰上演不伦恋的男女主角,两人的激情戏尺度令韩国媒体把《下女》与李安《色戒》相提并论。另外,全度妍、李政宰、徐雨、尹由静都有各自怀着不同的心情演绎的围绕浴缸的暴露戏,因此从筹拍开始就成为外界关注的焦点。

  片中的男主人与下女乱伦后,开出巨额支票做为补偿。妻子为了保住自己的地位和权利,装作不知。岳母不惜牺牲女儿,只为牢牢地控制住女婿,女管家坐山观虎斗,不停地捞取好处(她的儿子刚刚成为检察官,她也有了进入权利游戏的资格)。他们的卑劣不免会让观众血压升高。社会不仅单纯地划分为上流与下流社会,就连女佣人中也分等级。

  令人爱恨交加的下女:韩国新旧社会的缩影

  影片把原作中不存在的岳母和老管家当成主要人物,情节的展开完全不同于原作。片中全度妍扮演的恩伊与尹茹贞诠释的管家秉夕是当时社会背景下的下等中两大分派的代表人物。前者怀着目的来到大家族,意图凭借自己的力量掀起这个贵族家庭的根基,内心反叛的她随着欲望的增加变本加厉地把整个家族玩弄在掌心中;后者则是典型的管家做派,性格老旧软弱,既怕死又刻薄,明知道恩伊和男主人偷情也不告发只在一旁静观其变,然后偷偷把事实和恩伊怀孕的真相告诉男主人的母亲。李政宰出演的男主角则体现出当时社会男权主义者的虚伪一面,内心非常看不起下人,却口是心非地教育女儿:"只有你把其他人也看高,你自己才会更高"的道理。导演林尚洙在发布会上表示比起对情欲戏份的期待,他其实更希望观众把焦点放在《下女》所体现出的所谓"下等人"们的人权问题和现代社会中权势者与失权者的角力问题。影片描写了人性扭曲阴暗的一面,是一部讲述了各成员之间相互蔑视,却维持一种畸形的平衡关系的家庭伦理片。原作刻画了相互不同阶层的人用各自不同的方式满足自己的欲望,却最终破灭的故事。而在翻拍版,每个成员彼此憎恨,试图用卑鄙的手段给对方套上枷锁。导演通过每个人物的表情和台词,向那些已经沦为资本、 权力及欲望的奴隶的人,狠狠地吐了一口痰,讽刺这些沦落为欲望奴隶的小丑们可笑而悲凉的人生。

  全度妍:豁出去了拍床戏 台词比想象中露骨

  2007年凭借李昌东执导的《密阳》夺得戛纳影后的全度妍早已过了需要出位表演来为自己赢得奖项肯定的年代,对于这次为何即使有多场裸露戏也要接拍,她坦言对原作在韩国影坛享有不错的口碑早有耳闻"自己很早的时候第一次看到剧本就幻想过如果是自己扮演恩伊的话,将以什么样的方式诠释这个放任欲望去玩禁忌游戏,在一般人眼中遭到唾弃的虚荣女主角"。她言在演《下女》时从未看过旧版,"担心自己的演绎方式会受其影响和制约",虽对"恩伊"一角情有独钟,毕竟是"有夫之妇",全度妍在征求了丈夫和家人的同意后才答应制片方"家人的尊重和支持使我的表演更加有信心"。据了解,她在在浴缸戏里就多次露屁股程度的性感演出,和李政宰的激情戏则以节制性的闪烁镜头为主,但这个浴缸成为全片的主线。

  谈到自己扮演的恩伊与旧版的区别时,全度妍表示"我的表演看上去更加柔软一些"。原版中的恩伊是个为了报仇处处显出强硬姿态,在男主人面前用高傲吸烟诱惑对方的凶狠角色,全度妍版的则是将这种"凶狠内敛化"--自己天真无邪的纯情模样,用高明的方式使出"杀人于无形"的迷药般的手段。

  制片方透露全度妍的演绎是收放自如,与李政宰的对手戏显示出女人柔软如猫需要被呵护的"低姿态",但与"情敌"女主人海拉的较量时却是一副丝毫不肯让步的"女王作派"。片中一场当怀孕的女主人徐雨亲眼看到侍女和自己丈夫偷情时,全度妍厚脸皮地对着徐雨说:"我有什么是做不到的"的戏令剧组人员为全度妍的演技所折服。

花絮

·林常树执导的第六部作品,与李沧东的《诗》携手入围了2010年5月戛纳电影节主竞赛单元。

·2007年,老版《下女》在马丁·斯科塞斯基金会的援助下进行数码修复,并在2008年在戛纳电影节经典单元放映,受到好评。

·担任影片编剧的是有着"语言魔术师"美誉的金秀贤,她创作的电视剧本包括《澡堂老板家的男人们》、《妈妈发怒了》等等,这是她1989年《伤口》20年后再涉足电影。

·全度妍在制作报告会上表示"在表现角色方面也非常吃力,而且导演的指示也比想象的要刻薄。裸露程度非常高,次数也很多,非常难"。

·李政宰称影片床戏的台词"内容露骨到都无法说出口,给我的冲击实在太大","那段台词就打印在A4纸上,我实在是无法将其随意丢掉至今保留着"。

·全度妍评价自己的角色:"原作电影中的她是个很容易引起事故的危险人物,而我的角色充满了生命力,更加纯粹和人性化"。
  1. Video
  2. ID : 1
  3. Format : AVC
  4. Format/Info : Advanced Video Codec
  5. Format profile : High@L4.1
  6. Format settings : CABAC / 5 Ref Frames
  7. Format settings, CABAC : Yes
  8. Format settings, ReFrames : 5 frames
  9. Codec ID : V_MPEG4/ISO/AVC
  10. Duration : 1 h 47 min
  11. Bit rate : 8 699 kb/s
  12. Width : 1 920 pixels
  13. Height : 816 pixels
  14. Display aspect ratio : 2.35:1
  15. Frame rate mode : Constant
  16. Frame rate : 23.976 (24000/1001) FPS
  17. Color space : YUV
  18. Chroma subsampling : 4:2:0
  19. Bit depth : 8 bits
  20. Scan type : Progressive
  21. Bits/(Pixel*Frame) : 0.232
  22. Stream size : 6.37 GiB (83%)
  23. Writing library : x264 core 142 r2431 ac76440
  24. Encoding settings : cabac=1 / ref=5 / deblock=1:0:0 / analyse=0x3:0x133 / me=umh / subme=7 / psy=1 / psy_rd=1.00:0.00 / mixed_ref=1 / me_range=16 / chroma_me=1 / trellis=1 / 8x8dct=1 / cqm=0 / deadzone=21,11 / fast_pskip=0 / chroma_qp_offset=-2 / threads=12 / lookahead_threads=2 / sliced_threads=0 / nr=0 / decimate=1 / interlaced=0 / bluray_compat=0 / constrained_intra=0 / bframes=3 / b_pyramid=2 / b_adapt=2 / b_bias=0 / direct=3 / weightb=1 / open_gop=0 / weightp=2 / keyint=240 / keyint_min=23 / scenecut=40 / intra_refresh=0 / rc_lookahead=50 / rc=2pass / mbtree=1 / bitrate=8699 / ratetol=1.0 / qcomp=0.60 / qpmin=0 / qpmax=69 / qpstep=4 / cplxblur=20.0 / qblur=0.5 / ip_ratio=1.40 / aq=1:1.00
  25. Language : English
  26. Default : Yes
  27. Forced : No

  28. Audio
  29. ID : 2
  30. Format : DTS
  31. Format/Info : Digital Theater Systems
  32. Codec ID : A_DTS
  33. Duration : 1 h 47 min
  34. Bit rate mode : Constant
  35. Bit rate : 1 509 kb/s
  36. Channel(s) : 6 channels
  37. Channel layout : C L R Ls Rs LFE
  38. Sampling rate : 48.0 kHz
  39. Frame rate : 93.750 FPS (512 SPF)
  40. Bit depth : 24 bits
  41. Compression mode : Lossy
  42. Stream size : 1.13 GiB (15%)
  43. Language : Korean
  44. Default : Yes
  45. Forced : No

  46. Text
  47. ID : 3
  48. Format : UTF-8
  49. Codec ID : S_TEXT/UTF8
  50. Codec ID/Info : UTF-8 Plain Text
  51. Language : English
  52. Default : Yes
  53. Forced : No

  54. Menu
  55. 00:00:00.000 : en:00:00:00.000
  56. 00:10:42.350 : en:00:10:42.350
  57. 00:19:57.029 : en:00:19:57.029
  58. 00:30:38.378 : en:00:30:38.378
  59. 00:43:28.105 : en:00:43:28.105
  60. 00:48:08.844 : en:00:48:08.844
  61. 00:57:16.016 : en:00:57:16.016
  62. 01:04:06.843 : en:01:04:06.843
  63. 01:15:22.518 : en:01:15:22.518
  64. 01:19:07.910 : en:01:19:07.910
  65. 01:32:53.735 : en:01:32:53.735
  66. 01:43:09.600 : en:01:43:09.600
复制代码






游客,如果您要查看本帖隐藏内容请回复
回复

使用道具 举报

金鸡奖主角

高清币
735
金钱
3977
鲜花
0
在线时间
547 小时
最后登录
2019-3-20
发表于 2019-1-11 18:19:08 | 显示全部楼层
楼主发贴辛苦了,谢谢楼主分享!我觉得中国高清论坛是注册对了!
回复 支持 反对

使用道具 举报

知名艺人

高清币
115
金钱
355
鲜花
0
在线时间
43 小时
最后登录
2019-3-18
发表于 2019-1-11 18:20:43 | 显示全部楼层

楼主太厉害了!楼主,电影应该很好看我觉得中国高清论坛真是个好地方!
回复 支持 反对

使用道具 举报

永恒神话

高清币
4938
金钱
20740
鲜花
0
在线时间
2581 小时
最后登录
2019-3-20
发表于 2019-1-11 18:20:51 | 显示全部楼层
谢楼主分享,有你更精彩
回复 支持 反对

使用道具 举报

跑龙套

高清币
1
金钱
19
鲜花
0
在线时间
3 小时
最后登录
2019-2-6
发表于 2019-1-11 18:21:34 | 显示全部楼层

楼主太厉害了!楼主,电影应该很好看我觉得中国高清论坛真是个好地方!
回复 支持 反对

使用道具 举报

好莱坞明星

高清币
1179
金钱
6063
鲜花
0
在线时间
1269 小时
最后登录
2019-3-18
发表于 2019-1-11 18:21:59 | 显示全部楼层
楼主发贴辛苦了,谢谢楼主分享!我觉得中国高清论坛是注册对了!
回复 支持 反对

使用道具 举报

金鸡奖主角

高清币
498
金钱
4034
鲜花
0
在线时间
1164 小时
最后登录
2019-3-21
发表于 2019-1-11 18:27:16 | 显示全部楼层
楼主发贴辛苦了,谢谢楼主分享!我觉得中国高清论坛是注册对了!
回复 支持 反对

使用道具 举报

天王巨星

高清币
34
金钱
2889
鲜花
0
在线时间
793 小时
最后登录
2019-3-20
发表于 2019-1-11 18:27:48 | 显示全部楼层
星星嘻嘻嘻嘻嘻嘻惺惺惜惺惺想惺惺惜惺惺想谢谢
回复 支持 反对

使用道具 举报

超级明星

高清币
2603
金钱
3727
鲜花
0
在线时间
236 小时
最后登录
2019-3-18
发表于 2019-1-11 18:28:05 | 显示全部楼层
楼主发贴辛苦了,谢谢楼主分享!
回复 支持 反对

使用道具 举报

懒得打字嘛,点击右侧快捷回复 【右侧内容,后台自定义】
您需要登录后才可以回帖 登录 | 立即注册

本版积分规则

QQ|手机版|小黑屋|中国高清论坛 ( 黔ICP备16007815号-1 )

GMT+8, 2019-3-21 02:09 , Processed in 0.106927 second(s), 29 queries .

Powered by Discuz! X3.4

© 2001-2017 Comsenz Inc.

快速回复 返回顶部 返回列表