请选择 进入手机版 | 继续访问电脑版

中国高清论坛

 找回密码
 立即注册
搜索
查看: 6521|回复: 1800

[传记片] 登月第一人 First.Man.2018.IMAX.1080p.BluRay.x264.DTS-HD.MA.7.1-FGT 15.19GB

  [复制链接]

超级版主

高清币
1058246
金钱
33042
鲜花
7
在线时间
4477 小时
最后登录
2019-2-18
发表于 2019-1-13 01:35:32 | 显示全部楼层 |阅读模式








◎译  名 登月第一人 / 爱月之人(豆友译名) / 登月先锋(台) / 第一人
◎片  名 First Man
◎年  代 2018
◎产  地 美国
◎类  别 剧情 / 传记 / 历史
◎语  言 英语
◎上映日期 2018-08-29(威尼斯电影节) / 2018-10-12(美国)
◎IMDb评分 7.5/10 from 74634 users
◎IMDb链接 http://www.imdb.com/title/tt1213641
◎豆瓣评分 7.6/10 from 14468 users
◎豆瓣链接 https://movie.douban.com/subject/3026559/
◎片  长 141分钟
◎导  演 达米恩·查泽雷 Damien Chazelle
◎编  剧 乔希·辛格 Josh Singer / 詹姆斯·汉森 James R. Hansen
◎主  演 瑞恩·高斯林 Ryan Gosling
      克莱尔·芙伊 Claire Foy
      杰森·克拉克 Jason Clarke
      凯尔·钱德勒 Kyle Chandler
      寇瑞·斯托尔 Corey Stoll
      派屈克·福吉特 Patrick Fugit
      克里斯托弗·阿波特 Christopher Abbott
      塞伦·希德 Ciarán Hinds
      奥莉维亚·汉密尔顿 Olivia Hamilton
      巴勃罗·施瑞博尔 Pablo Schreiber
      谢伊·惠格姆 Shea Whigham
      卢卡斯·哈斯 Lukas Haas
      伊桑·恩布里 Ethan Embry
      布莱恩·达西·詹姆斯 Brian d'Arcy James
      科里·迈克尔·史密斯 Cory Michael Smith
      克里斯·斯万博格 Kris Swanberg
◎标  签 传记 | 美国 | 太空 | 2018 | 登月 | 剧情 | 历史 | 真实事件改编
◎简  介
  影片将聚焦美国传奇宇航员尼尔·阿姆斯特朗的生平,重点讲述他在1961-1969年间成为人类历史上第一个登月者的过程,同时也展现出人类在这次史上最危险的宇宙探索征途中所付出的难以想象的国家与个体牺牲。
影片根据詹姆斯·汉森的传记作品《第一人:尼尔·阿姆斯特朗的人生》改编而成。
尼尔·阿姆斯特朗,是人类历史上首位登上月球的宇航员。他1930年出生,2012年逝世,是美国阿波罗11号登月计划宇航员。在美国航空航天局服役时,阿姆斯特朗于1969年7月21日成为了第一个踏上月球的宇航员,也是第一个在地球外星体上留下脚印的人类成员。
◎获奖情况
  第75届威尼斯电影节(2018)
  主竞赛单元 金狮奖 (提名) 达米恩·查泽雷
  第76届金球奖(2019)
  电影类 最佳女配角(提名) 克莱尔·芙伊
  电影类 最佳原创配乐
  第72届英国电影学院奖(2019)
  电影奖 最佳女配角(提名) 克莱尔·芙伊
  电影奖 最佳改编剧本(提名) 乔希·辛格
  电影奖 最佳摄影(提名) 莱纳斯·桑德格伦
  电影奖 最佳剪辑(提名) 汤姆·克罗斯
  电影奖 最佳艺术指导(提名) 内森·克劳利 / Kathy Lucas
  电影奖 最佳特殊视觉效果(提名)
  电影奖 最佳音效(提名)
  第33届美国摄影协会奖(2019)
  电影长片最佳摄影(提名) 莱纳斯·桑德格伦
  第69届美国剪辑工会奖(2019)
  剧情片最佳剪辑(提名) 汤姆·克罗斯
  第23届美国艺术指导工会奖(2019)
  电影奖 最佳历史电影艺术指导(提名) 内森·克劳利
  第55届美国声音效果协会奖(2019)
  真人电影最佳音效(提名)
  第24届美国评论家选择电影奖(2019)
  最佳影片(提名)
  最佳导演(提名) 达米恩·查泽雷
  最佳男主角(提名) 瑞恩·高斯林
  最佳女配角(提名) 克莱尔·芙伊
  最佳改编剧本(提名) 乔希·辛格
  最佳摄影(提名)
  最佳剪辑(提名)
  最佳配乐(提名)
  最佳美术指导(提名)
  最佳视觉效果(提名)
  第23届金卫星奖(2019)
  电影部门 最佳剧情片(提名)
  电影部门 剧情片最佳男主角(提名) 瑞恩·高斯林
  电影部门 最佳女配角(提名) 克莱尔·芙伊
  电影部门 最佳原创配乐
  电影部门 最佳剪辑(提名)
  电影部门 最佳音效(提名)
  电影部门 最佳美术指导(提名)
  第22届好莱坞电影奖(2018)
  年度导演 达米恩·查泽雷
  年度剪辑 汤姆·克罗斯
  年度配乐 贾斯汀·赫维兹
  第17届华盛顿影评人协会奖(2018)
  最佳摄影(提名)
  最佳剪辑
  最佳原创配乐(提名) 贾斯汀·赫维兹
  最佳艺术指导(提名)
  第39届伦敦影评人协会奖(2019)
  年度电影(提名)
  年度女配角(提名) 克莱尔·芙伊
  年度英国/爱尔兰女演员(提名) 克莱尔·芙伊
  技术成就奖(提名) 保罗·兰伯特
  第39届波士顿影评人协会奖(2018)
  最佳剪辑
  最佳音乐(提名)
  第44届洛杉矶影评人协会奖(2018)
  最佳配乐(提名)
  第31届芝加哥影评人协会奖(2018)
  最佳摄影(提名) 莱纳斯·桑德格伦
  最佳剪辑(提名) 汤姆·克罗斯
  最佳原创配乐(提名) 贾斯汀·赫维兹
  最佳视觉效果(提名)
  第17届旧金山影评人协会奖(2018)
  最佳摄影(提名)
  最佳艺术指导(提名)
  最佳原创配乐(提名)
  最佳剪辑(提名)
  第18届温哥华影评人协会奖(2019)
  最佳女配角(提名) 克莱尔·芙伊
  第18届凤凰城影评人协会奖(2018)
  最佳原创配乐
  第3届亚特兰大影评人协会奖(2018)
  十佳影片
  最佳原创配乐
  第22届美国在线影评人协会奖(2019)
  最佳剪辑(提名)
  最佳原创配乐(提名)
  最佳摄影(提名)
  第5届豆瓣电影年度榜单(2018)
  年度电影原声(提名)




  1. Video
  2. ID : 1
  3. Format : AVC
  4. Format/Info : Advanced Video Codec
  5. Format profile : High@L4.1
  6. Format settings : CABAC / 4 Ref Frames
  7. Format settings, CABAC : Yes
  8. Format settings, ReFrames : 4 frames
  9. Codec ID : V_MPEG4/ISO/AVC
  10. Duration : 2 h 20 min
  11. Bit rate : 11.5 Mb/s
  12. Width : 1 920 pixels
  13. Height : 1 080 pixels
  14. Display aspect ratio : 16:9
  15. Frame rate mode : Constant
  16. Frame rate : 23.976 (24000/1001) FPS
  17. Color space : YUV
  18. Chroma subsampling : 4:2:0
  19. Bit depth : 8 bits
  20. Scan type : Progressive
  21. Bits/(Pixel*Frame) : 0.231
  22. Stream size : 11.3 GiB (75%)
  23. Title : First.Man.2018.IMAX.1080p.BluRay.x264.DTS-HD.MA.7.1-FGT
  24. Writing library : x264 core 148 r2748 97eaef2
  25. Encoding settings : cabac=1 / ref=4 / deblock=1:-2:-2 / analyse=0x3:0x113 / me=umh / subme=9 / psy=1 / psy_rd=1.00:0.15 / mixed_ref=1 / me_range=16 / chroma_me=1 / trellis=2 / 8x8dct=1 / cqm=0 / deadzone=21,11 / fast_pskip=1 / chroma_qp_offset=-3 / threads=16 / lookahead_threads=3 / sliced_threads=0 / nr=0 / decimate=1 / interlaced=0 / bluray_compat=0 / constrained_intra=0 / bframes=3 / b_pyramid=2 / b_adapt=1 / b_bias=0 / direct=3 / weightb=1 / open_gop=0 / weightp=2 / keyint=250 / keyint_min=25 / scenecut=40 / intra_refresh=0 / rc_lookahead=50 / rc=2pass / mbtree=1 / bitrate=11500 / ratetol=1.0 / qcomp=0.60 / qpmin=0 / qpmax=69 / qpstep=4 / cplxblur=20.0 / qblur=0.5 / vbv_maxrate=31250 / vbv_bufsize=31250 / nal_hrd=none / filler=0 / ip_ratio=1.40 / aq=1:1.00
  26. Language : English
  27. Default : Yes
  28. Forced : No

  29. Audio
  30. ID : 2
  31. Format : DTS XLL
  32. Format/Info : Digital Theater Systems
  33. Commercial name : DTS-HD Master Audio
  34. Codec ID : A_DTS
  35. Duration : 2 h 20 min
  36. Bit rate mode : Variable
  37. Bit rate : 3 890 kb/s
  38. Channel(s) : 8 channels
  39. Channel layout : C L R LFE Lb Rb Lss Rss
  40. Sampling rate : 48.0 kHz
  41. Frame rate : 93.750 FPS (512 SPF)
  42. Bit depth : 24 bits
  43. Compression mode : Lossless
  44. Stream size : 3.83 GiB (25%)
  45. Title : First.Man.2018.IMAX.1080p.BluRay.x264.DTS-HD.MA.7.1-FGT
  46. Language : English
  47. Default : No
  48. Forced : No

  49. Text #1
  50. ID : 3
  51. Format : UTF-8
  52. Codec ID : S_TEXT/UTF8
  53. Codec ID/Info : UTF-8 Plain Text
  54. Duration : 2 h 10 min
  55. Bit rate : 48 b/s
  56. Count of elements : 1376
  57. Stream size : 46.9 KiB (0%)
  58. Title : English-SRT
  59. Language : English
  60. Default : Yes
  61. Forced : No

  62. Text #2
  63. ID : 4
  64. Format : UTF-8
  65. Codec ID : S_TEXT/UTF8
  66. Codec ID/Info : UTF-8 Plain Text
  67. Duration : 2 h 12 min
  68. Bit rate : 55 b/s
  69. Count of elements : 1596
  70. Stream size : 53.9 KiB (0%)
  71. Title : English-SDH-SRT
  72. Language : English
  73. Default : No
  74. Forced : No

  75. Text #3
  76. ID : 5
  77. Format : PGS
  78. Muxing mode : zlib
  79. Codec ID : S_HDMV/PGS
  80. Codec ID/Info : Picture based subtitle format used on BDs/HD-DVDs
  81. Duration : 2 h 12 min
  82. Bit rate : 36.6 kb/s
  83. Count of elements : 3192
  84. Stream size : 34.7 MiB (0%)
  85. Title : English-PGS
  86. Language : English
  87. Default : No
  88. Forced : No

  89. Text #4
  90. ID : 6
  91. Format : PGS
  92. Muxing mode : zlib
  93. Codec ID : S_HDMV/PGS
  94. Codec ID/Info : Picture based subtitle format used on BDs/HD-DVDs
  95. Duration : 2 h 19 min
  96. Bit rate : 27.1 kb/s
  97. Count of elements : 2796
  98. Stream size : 27.1 MiB (0%)
  99. Title : Spanish-PGS
  100. Language : Spanish
  101. Default : No
  102. Forced : No

  103. Text #5
  104. ID : 7
  105. Format : PGS
  106. Muxing mode : zlib
  107. Codec ID : S_HDMV/PGS
  108. Codec ID/Info : Picture based subtitle format used on BDs/HD-DVDs
  109. Duration : 2 h 19 min
  110. Bit rate : 28.3 kb/s
  111. Count of elements : 2812
  112. Stream size : 28.3 MiB (0%)
  113. Title : French-PGS
  114. Language : French
  115. Default : No
  116. Forced : No

  117. Menu
  118. 00:00:00.000 : en:Chapter 01
  119. 00:07:20.440 : en:Chapter 02
  120. 00:13:35.981 : en:Chapter 03
  121. 00:19:53.192 : en:Chapter 04
  122. 00:25:59.724 : en:Chapter 05
  123. 00:31:30.138 : en:Chapter 06
  124. 00:40:17.248 : en:Chapter 07
  125. 00:49:57.703 : en:Chapter 08
  126. 01:00:02.932 : en:Chapter 09
  127. 01:05:42.521 : en:Chapter 10
  128. 01:11:05.719 : en:Chapter 11
  129. 01:15:12.966 : en:Chapter 12
  130. 01:21:33.305 : en:Chapter 13
  131. 01:30:35.304 : en:Chapter 14
  132. 01:39:00.726 : en:Chapter 15
  133. 01:48:58.323 : en:Chapter 16
  134. 01:54:44.419 : en:Chapter 17
  135. 02:00:14.916 : en:Chapter 18
  136. 02:09:55.704 : en:Chapter 19
  137. 02:14:02.743 : en:Chapter 20

复制代码










下载软件:115,ut,bt彗星,百度离线,迅雷极速.(以上不会自行百度)


游客,如果您要查看本帖隐藏内容请回复



你可能喜欢如下影片












蓝光重编码电影





回复

使用道具 举报

好莱坞明星

高清币
2441
金钱
3533
鲜花
0
在线时间
980 小时
最后登录
2019-2-19
发表于 2019-1-13 01:42:13 | 显示全部楼层
此帖仅作者可见

使用道具 举报

金鸡奖主角

高清币
343
金钱
2855
鲜花
0
在线时间
291 小时
最后登录
2019-2-16
发表于 2019-1-13 01:57:23 | 显示全部楼层
此帖仅作者可见

使用道具 举报

superstar

高清币
4984
金钱
9083
鲜花
0
在线时间
1201 小时
最后登录
2019-2-18
发表于 2019-1-13 01:57:42 | 显示全部楼层
此帖仅作者可见

使用道具 举报

金鸡奖主角

高清币
343
金钱
2855
鲜花
0
在线时间
291 小时
最后登录
2019-2-16
发表于 2019-1-13 01:57:48 | 显示全部楼层
此帖仅作者可见

使用道具 举报

金鸡奖主角

高清币
1327
金钱
3323
鲜花
0
在线时间
213 小时
最后登录
2019-2-18
发表于 2019-1-13 02:02:49 | 显示全部楼层
此帖仅作者可见

使用道具 举报

天王巨星

高清币
4
金钱
2588
鲜花
0
在线时间
948 小时
最后登录
2019-2-18
发表于 2019-1-13 05:20:47 | 显示全部楼层
此帖仅作者可见

使用道具 举报

天王巨星

高清币
4
金钱
2588
鲜花
0
在线时间
948 小时
最后登录
2019-2-18
发表于 2019-1-13 05:21:06 | 显示全部楼层
此帖仅作者可见

使用道具 举报

天王巨星

高清币
4
金钱
2588
鲜花
0
在线时间
948 小时
最后登录
2019-2-18
发表于 2019-1-13 05:21:22 | 显示全部楼层
此帖仅作者可见

使用道具 举报

懒得打字嘛,点击右侧快捷回复 【右侧内容,后台自定义】
您需要登录后才可以回帖 登录 | 立即注册

本版积分规则

QQ|手机版|小黑屋|中国高清论坛 ( 黔ICP备16007815号-1 )

GMT+8, 2019-2-19 03:17 , Processed in 0.117179 second(s), 29 queries .

Powered by Discuz! X3.4

© 2001-2017 Comsenz Inc.

快速回复 返回顶部 返回列表