请选择 进入手机版 | 继续访问电脑版

中国高清论坛

 找回密码
 立即注册
搜索
查看: 596|回复: 164

[犯罪片] 网络谜踪/人肉搜索(台) Searching.2018.x264.BDRip.1080p.OlLanDGroup 7.89 GiB

  [复制链接]

区域版主

高清币
14243
金钱
33423
鲜花
-88
在线时间
10811 小时
最后登录
2019-1-16
发表于 2019-1-13 11:42:53 | 显示全部楼层 |阅读模式



◎译  名 网络谜踪 / 人肉搜寻(港) / 人肉搜索(台)
◎片  名 Searching
◎年  代 2018
◎产  地 美国 / 俄罗斯
◎类  别 剧情 / 悬疑 / 惊悚
◎语  言 英语
◎IMDb评分 7.8/10 from 36604 users
◎IMDb链接 http://www.imdb.com/title/tt7668870
◎片  长 102分钟
◎导  演 阿尼什·查甘蒂 Aneesh Chaganty
◎主  演 约翰·赵 John Cho
      米切尔·拉 Michelle La
      黛博拉·梅辛 Debra Messing
      约瑟夫·李 Joseph Lee
      萨拉·米博·索恩 Sara Mibo Sohn
      Alex Jayne Go
      Megan Liu
      刘卡雅 Kya Dawn Lau
      Dominic Hoffman
      Sylvia Minassian

◎简  介  


  工程师大卫·金(约翰·赵 饰)一直引以为傲的16岁乖女玛戈特突然失踪。前来调查此案的警探怀疑女儿离家出走。不满这一结论的父亲为了寻找真相,独自展开调查。他打开了女儿的笔记本电脑,用社交软件开始寻找破案线索。大卫必须在女儿消失之前,沿着她在虚拟世界的足迹找到她…


  1. Общее
  2. Уникальный идентификатор : 216717068288824087648075821668589426371 (0xA30A306AACB5D684AA0328847C0CD6C3)
  3. Полное имя : D:ЗагрузкиSearching.2018.x264.BDRip.(1080p).OlLanDGroup.mkv
  4. Формат : Matroska
  5. Версия формата : Version 4 / Version 2
  6. Размер файла : 7,89 Гбайт
  7. Продолжительность : 1 ч. 42 м.
  8. Общий поток : 11,0 Мбит/сек
  9. Название фильма : Поиск.2018.Rip by: ollan
  10. Дата кодирования : UTC 2019-01-13 03:03:12
  11. Программа кодирования : mkvmerge v6.5.0 ('Isn't she lovely') built on Oct 20 2013 12:50:05
  12. Библиотека кодирования : libebml v1.3.0 + libmatroska v1.4.1
  13. Обложка : Yes
  14. Attachments : Cover - Searching.png

  15. Видео
  16. Идентификатор : 1
  17. Формат : AVC
  18. Формат/Информация : Advanced Video Codec
  19. Профиль формата : High@L4.1
  20. Настройки формата : CABAC / 4 Ref Frames
  21. Параметр CABAC формата : Да
  22. Параметр ReFrames формата : 4 кадра
  23. Идентификатор кодека : V_MPEG4/ISO/AVC
  24. Продолжительность : 1 ч. 42 м.
  25. Битрейт : 8879 Кбит/сек
  26. Ширина : 1920 пикселей
  27. Высота : 1080 пикселей
  28. Соотношение сторон : 16:9
  29. Режим частоты кадров : Постоянный
  30. Частота кадров : 23,976 (24000/1001) кадра/сек
  31. Цветовое пространство : YUV
  32. Субдискретизация насыщенности : 4:2:0
  33. Битовая глубина : 8 бит
  34. Тип развёртки : Прогрессивная
  35. Бит/(Пиксели*Кадры) : 0.179
  36. Размер потока : 6,19 Гбайт (79%)
  37. Библиотека кодирования : x264 core 146 r2538 121396c
  38. Настройки программы : cabac=1 / ref=4 / deblock=1:-3:-3 / analyse=0x3:0x133 / me=umh / subme=11 / psy=1 / psy_rd=0.95:0.05 / mixed_ref=1 / me_range=64 / chroma_me=1 / trellis=2 / 8x8dct=1 / cqm=0 / deadzone=21,11 / fast_pskip=0 / chroma_qp_offset=-3 / threads=12 / lookahead_threads=3 / sliced_threads=0 / nr=0 / decimate=0 / interlaced=0 / bluray_compat=0 / constrained_intra=0 / bframes=10 / b_pyramid=2 / b_adapt=2 / b_bias=0 / direct=3 / weightb=1 / open_gop=0 / weightp=2 / keyint=240 / keyint_min=23 / scenecut=40 / intra_refresh=0 / rc_lookahead=40 / rc=2pass / mbtree=0 / bitrate=8879 / ratetol=1.0 / qcomp=0.60 / qpmin=0 / qpmax=69 / qpstep=4 / cplxblur=20.0 / qblur=0.5 / vbv_maxrate=50000 / vbv_bufsize=62500 / nal_hrd=none / filler=0 / ip_ratio=1.40 / pb_ratio=1.30 / aq=1:1.00
  39. Язык : English
  40. Default : Да
  41. Forced : Нет

  42. Аудио #1
  43. Идентификатор : 2
  44. Формат : AC-3
  45. Формат/Информация : Audio Coding 3
  46. Идентификатор кодека : A_AC3
  47. Продолжительность : 1 ч. 42 м.
  48. Вид битрейта : Постоянный
  49. Битрейт : 640 Кбит/сек
  50. Каналы : 6 каналов
  51. Расположение каналов : Front: L C R, Side: L R, LFE
  52. Частота : 48,0 КГц
  53. Частота кадров : 31,250 кадров/сек (1536 SPF)
  54. Битовая глубина : 16 бит
  55. Метод сжатия : С потерями
  56. Размер потока : 469 Мбайт (6%)
  57. Заголовок : Дублированный (Лицензия)
  58. Язык : Russian
  59. Service kind : Complete Main
  60. Default : Да
  61. Forced : Нет

  62. Аудио #2
  63. Идентификатор : 3
  64. Формат : DTS
  65. Формат/Информация : Digital Theater Systems
  66. Идентификатор кодека : A_DTS
  67. Продолжительность : 1 ч. 42 м.
  68. Вид битрейта : Постоянный
  69. Битрейт : 1509 Кбит/сек
  70. Каналы : 6 каналов
  71. Расположение каналов : Front: L C R, Side: L R, LFE
  72. Частота : 48,0 КГц
  73. Частота кадров : 93,750 кадра/сек (512 SPF)
  74. Битовая глубина : 16 бит
  75. Метод сжатия : С потерями
  76. Размер потока : 1,08 Гбайт (14%)
  77. Язык : English
  78. Default : Нет
  79. Forced : Нет

  80. Текст #1
  81. Идентификатор : 4
  82. Формат : UTF-8
  83. Идентификатор кодека : S_TEXT/UTF8
  84. Идентификатор кодека/Информация : UTF-8 Plain Text
  85. Заголовок : Full
  86. Язык : Russian
  87. Default : Нет
  88. Forced : Нет

  89. Текст #2
  90. Идентификатор : 5
  91. Формат : UTF-8
  92. Идентификатор кодека : S_TEXT/UTF8
  93. Идентификатор кодека/Информация : UTF-8 Plain Text
  94. Заголовок : Full
  95. Язык : English
  96. Default : Нет
  97. Forced : Нет

  98. Меню
  99. 00:00:00.000 : en:Chapter 01
  100. 00:06:25.385 : en:Chapter 02
  101. 00:12:41.635 : en:Chapter 03
  102. 00:20:13.545 : en:Chapter 04
  103. 00:23:12.849 : en:Chapter 05
  104. 00:31:01.651 : en:Chapter 06
  105. 00:35:49.647 : en:Chapter 07
  106. 00:39:39.460 : en:Chapter 08
  107. 00:47:27.845 : en:Chapter 09
  108. 00:53:31.708 : en:Chapter 10
  109. 00:59:16.928 : en:Chapter 11
  110. 01:05:29.216 : en:Chapter 12
  111. 01:13:07.257 : en:Chapter 13
  112. 01:21:14.619 : en:Chapter 14
  113. 01:26:07.203 : en:Chapter 15
  114. 01:34:32.792 : en:Chapter 16
复制代码






游客,如果您要查看本帖隐藏内容请回复



回复

使用道具 举报

金鸡奖主角

高清币
934
金钱
3611
鲜花
0
在线时间
466 小时
最后登录
2019-1-14
发表于 2019-1-13 13:19:58 | 显示全部楼层

这个帖子不回对不起自己!我想我是一天也不能离开中国高清论坛
回复 支持 1 反对 0

使用道具 举报

禁止访问

高清币
14
金钱
18
鲜花
0
在线时间
1 小时
最后登录
2019-1-13
发表于 2019-1-13 13:19:22 | 显示全部楼层
提示: 作者被禁止或删除 内容自动屏蔽
回复 支持 1 反对 0

使用道具 举报

知名艺人

高清币
5
金钱
315
鲜花
0
在线时间
35 小时
最后登录
2019-1-13
发表于 2019-1-13 11:50:51 | 显示全部楼层
楼主发贴辛苦了,谢谢楼主分享!我觉得中国高清论坛是注册对了!
回复 支持 反对

使用道具 举报

永恒神话

高清币
35947
金钱
69844
鲜花
0
在线时间
5617 小时
最后登录
2019-1-16
发表于 2019-1-13 11:52:01 | 显示全部楼层

这个帖子不回对不起自己!我想我是一天也不能离开中国高清论坛
回复 支持 反对

使用道具 举报

好莱坞明星

高清币
1792
金钱
5332
鲜花
0
在线时间
1640 小时
最后登录
2019-1-15
发表于 2019-1-13 11:54:13 | 显示全部楼层
感谢楼主提供分享!!!辛苦了~~~~
回复 支持 反对

使用道具 举报

天王巨星

高清币
1
金钱
3171
鲜花
0
在线时间
756 小时
最后登录
2019-1-15
发表于 2019-1-13 12:00:57 | 显示全部楼层
是的撒多撒二无群二群二群二群
回复 支持 反对

使用道具 举报

知名艺人

高清币
5
金钱
219
鲜花
0
在线时间
36 小时
最后登录
2019-1-13
发表于 2019-1-13 12:11:19 | 显示全部楼层

感谢楼主提供分享!!!辛苦了~~~~
回复 支持 反对

使用道具 举报

天王巨星

高清币
233
金钱
1753
鲜花
0
在线时间
176 小时
最后登录
2019-1-14
发表于 2019-1-13 12:19:15 | 显示全部楼层

楼主太厉害了!楼主,电影应该很好看我觉得中国高清论坛真是个好地方!
回复 支持 反对

使用道具 举报

好莱坞明星

高清币
1824
金钱
4133
鲜花
0
在线时间
1268 小时
最后登录
2019-1-15
发表于 2019-1-13 12:23:33 | 显示全部楼层
楼主发贴辛苦了,谢谢楼主分享!我觉得中国高清论坛是注册对了!
回复 支持 反对

使用道具 举报

金鸡奖主角

高清币
92
金钱
3522
鲜花
0
在线时间
851 小时
最后登录
2019-1-15

金牛座

发表于 2019-1-13 12:25:31 | 显示全部楼层
00412552927923
回复 支持 反对

使用道具 举报

知名艺人

高清币
74
金钱
148
鲜花
0
在线时间
12 小时
最后登录
2019-1-16
发表于 2019-1-13 12:35:49 | 显示全部楼层
漂亮  下载看更精彩
回复 支持 反对

使用道具 举报

懒得打字嘛,点击右侧快捷回复 【右侧内容,后台自定义】
您需要登录后才可以回帖 登录 | 立即注册

本版积分规则

QQ|手机版|小黑屋|中国高清论坛 ( 黔ICP备16007815号-1 )

GMT+8, 2019-1-24 09:51 , Processed in 0.141788 second(s), 32 queries .

Powered by Discuz! X3.4

© 2001-2017 Comsenz Inc.

快速回复 返回顶部 返回列表