请选择 进入手机版 | 继续访问电脑版

中国高清论坛

 找回密码
 立即注册
搜索
查看: 24|回复: 4

[喜剧片] 然后你来了 Then.Came.You.2018.1080p.WEB-DL.DD5.1.H264-FGT 3.35GB

[复制链接]

龙行天下

高清币
26694
金钱
5147
鲜花
20
在线时间
1203 小时
最后登录
2019-2-13
发表于 2019-2-1 21:34:00 | 显示全部楼层 |阅读模式

◎译  名 然后你来了 / Arrivals / Departures / 终点到达
◎片  名 Then Came You
◎年  代 2019
◎产  地 美国
◎类  别 剧情 / 喜剧 / 冒险
◎语  言 英语
◎上映日期 2019-02-01(美国点映)
◎IMDb评分 8.0/10 from 92 users
◎导  演 Peter Hutchings
◎编  剧 Fergal Rock
◎主  演 阿萨·巴特菲尔德 Asa Butterfield
      麦茜·威廉姆斯 Maisie Williams
      妮娜·杜波夫 Nina Dobrev
      佩顿·李斯特 Peyton R. List
      泰勒·霍奇林 Tyler Hoechlin
      郑肯 Ken Jeong
      索尼亚·瓦格尔 Sonya Walger
      大卫·科恩查内 David Koechner
      泰塔斯·伯吉斯 Tituss Burgess
      马格特·宾汉 Margot Bingham
      科林·莫斯 Colin Moss
      罗丝玛丽·霍华德 Rosemary Howard
      Briana Venskus



◎简  介  

  影片故事讲述挣扎在死亡边缘的斯凯(麦茜饰)和加尔文(阿萨饰)成为朋友,加尔文欲帮助斯凯完成她的愿望。在此期间,加尔文认清自己内心,同样还有萌动的爱情。


Video
ID : 1
Format : AVC
Format/Info : Advanced Video Codec
Format profile : High@L4
Format settings : CABAC / 5 Ref Frames
Format settings, CABAC : Yes
Format settings, ReFrames : 5 frames
Codec ID : V_MPEG4/ISO/AVC
Duration : 1 h 36 min
Bit rate : 4 573 kb/s
Width : 1 912 pixels
Height : 796 pixels
Display aspect ratio : 2.40:1
Frame rate mode : Constant
Frame rate : 23.976 (23976/1000) FPS
Color space : YUV
Chroma subsampling : 4:2:0
Bit depth : 8 bits
Scan type : Progressive
Bits/(Pixel*Frame) : 0.125
Stream size : 3.09 GiB (92%)
Title : Then.Came.You.2018.1080p.WEB-DL.DD5.1.H264-FGT
Language : English
Default : Yes
Forced : No
Color range : Limited
Color primaries : BT.709
Transfer characteristics : BT.709
Matrix coefficients : BT.709

Audio
ID : 2
Format : AC-3
Format/Info : Audio Coding 3
Commercial name : Dolby Digital
Codec ID : A_AC3
Duration : 1 h 36 min
Bit rate mode : Constant
Bit rate : 384 kb/s
Channel(s) : 6 channels
Channel layout : L R C LFE Ls Rs
Sampling rate : 48.0 kHz
Frame rate : 31.250 FPS (1536 SPF)
Bit depth : 16 bits
Compression mode : Lossy
Delay relative to video : -42 ms
Stream size : 266 MiB (8%)
Title : Then.Came.You.2018.1080p.WEB-DL.DD5.1.H264-FGT
Language : English
Service kind : Complete Main
Default : Yes
Forced : No

Menu
00:00:00.000 : en:1
00:09:41.831 : en:2
00:20:11.669 : en:3
00:31:47.197 : en:4
00:38:47.617 : en:5
00:51:08.941 : en:6
01:00:43.598 : en:7
01:10:56.168 : en:8
01:20:04.299 : en:9
01:33:15.423 : en:10

游客,如果您要查看本帖隐藏内容请回复

回复

使用道具 举报

好莱坞明星

高清币
1377
金钱
6393
鲜花
0
在线时间
244 小时
最后登录
2019-2-17
发表于 2019-2-1 21:39:36 | 显示全部楼层
楼主发贴辛苦了,谢谢楼主分享!我觉得中国高清论坛是注册对了!
回复 支持 反对

使用道具 举报

金鸡奖主角

高清币
879
金钱
6109
鲜花
0
在线时间
931 小时
最后登录
2019-2-17
发表于 2019-2-1 21:42:38 | 显示全部楼层

我看不错噢 谢谢楼主!中国高清论坛越来越好!
回复 支持 反对

使用道具 举报

知名艺人

高清币
7
金钱
287
鲜花
0
在线时间
33 小时
最后登录
2019-2-16
发表于 2019-2-1 21:44:54 | 显示全部楼层
谢谢楼主发布
回复 支持 反对

使用道具 举报

好莱坞明星

高清币
24
金钱
5909
鲜花
0
在线时间
1438 小时
最后登录
2019-2-17
发表于 2019-2-1 21:52:30 | 显示全部楼层
感谢楼主分享精彩电影!

回复 支持 反对

使用道具 举报

懒得打字嘛,点击右侧快捷回复 【右侧内容,后台自定义】
您需要登录后才可以回帖 登录 | 立即注册

本版积分规则

QQ|手机版|小黑屋|中国高清论坛 ( 黔ICP备16007815号-1 )

GMT+8, 2019-2-17 19:24 , Processed in 0.634741 second(s), 28 queries .

Powered by Discuz! X3.4

© 2001-2017 Comsenz Inc.

快速回复 返回顶部 返回列表