请选择 进入手机版 | 继续访问电脑版

中国高清论坛

 找回密码
 立即注册
搜索
查看: 22|回复: 4

[剧情片] 不可爱的 Unlovable.2018.1080p.AMZN.WEBRip.DDP5.1.x264-iKA 4.55GB

[复制链接]

龙行天下

高清币
27312
金钱
5217
鲜花
20
在线时间
1222 小时
最后登录
2019-2-22
发表于 2019-2-1 21:35:44 | 显示全部楼层 |阅读模式
◎译  名 不可爱的
◎片  名 Unlovable
◎年  代 2018
◎产  地 美国
◎类  别 剧情 / 喜剧
◎语  言 英语
◎IMDb评分 6.8/10 from 85 users
◎片  长 85分钟
◎导  演 Suzi Yoonessi
◎编  剧 Charlene deGuzman / 萨拉·阿迪纳·史密斯 Sarah Adina Smith / 马克·杜普拉斯 Mark Duplass
◎主  演 Charlene deGuzman
      约翰·浩克斯 John Hawkes
      梅丽莎·里奥 Melissa Leo


◎简  介  

  A sex and love addicted woman learns what real intimacy is when she starts making music with a reclusive man.

Video
ID : 1
Format : AVC
Format/Info : Advanced Video Codec
Format profile : High@L4
Format settings : CABAC / 4 Ref Frames
Format settings, CABAC : Yes
Format settings, ReFrames : 4 frames
Codec ID : V_MPEG4/ISO/AVC
Duration : 1 h 22 min
Bit rate : 7 276 kb/s
Width : 1 920 pixels
Height : 1 080 pixels
Display aspect ratio : 16:9
Frame rate mode : Constant
Frame rate : 23.976 (24000/1001) FPS
Color space : YUV
Chroma subsampling : 4:2:0
Bit depth : 8 bits
Scan type : Progressive
Bits/(Pixel*Frame) : 0.146
Stream size : 4.18 GiB (92%)
Language : English
Default : Yes
Forced : No
Color range : Limited
Color primaries : BT.709
Transfer characteristics : BT.709
Matrix coefficients : BT.709

Audio
ID : 2
Format : E-AC-3
Format/Info : Enhanced AC-3
Commercial name : Dolby Digital Plus
Codec ID : A_EAC3
Duration : 1 h 22 min
Bit rate mode : Constant
Bit rate : 640 kb/s
Channel(s) : 6 channels
Channel layout : L R C LFE Ls Rs
Sampling rate : 48.0 kHz
Frame rate : 31.250 FPS (1536 SPF)
Compression mode : Lossy
Stream size : 377 MiB (8%)
Language : English
Service kind : Complete Main
Default : Yes
Forced : No

Text
ID : 3
Format : UTF-8
Codec ID : S_TEXT/UTF8
Codec ID/Info : UTF-8 Plain Text
Duration : 1 h 21 min
Bit rate : 54 b/s
Count of elements : 1256
Stream size : 32.8 KiB (0%)
Language : English
Default : No
Forced : No

游客,如果您要查看本帖隐藏内容请回复

回复

使用道具 举报

好莱坞明星

高清币
1447
金钱
6586
鲜花
0
在线时间
251 小时
最后登录
2019-2-22
发表于 2019-2-1 21:39:14 | 显示全部楼层
楼主发贴辛苦了,谢谢楼主分享!我觉得中国高清论坛是注册对了!
回复 支持 反对

使用道具 举报

金鸡奖主角

高清币
916
金钱
6173
鲜花
0
在线时间
936 小时
最后登录
2019-2-22
发表于 2019-2-1 21:45:37 | 显示全部楼层

我看不错噢 谢谢楼主!中国高清论坛越来越好!
回复 支持 反对

使用道具 举报

superstar

高清币
3214
金钱
8284
鲜花
0
在线时间
568 小时
最后登录
2019-2-21
发表于 2019-2-1 22:07:49 | 显示全部楼层
楼主发贴辛苦了,谢谢楼主分享!我觉得中国高清论坛是注册对了!
回复 支持 反对

使用道具 举报

懒得打字嘛,点击右侧快捷回复 【右侧内容,后台自定义】
您需要登录后才可以回帖 登录 | 立即注册

本版积分规则

QQ|手机版|小黑屋|中国高清论坛 ( 黔ICP备16007815号-1 )

GMT+8, 2019-2-22 10:13 , Processed in 0.091305 second(s), 28 queries .

Powered by Discuz! X3.4

© 2001-2017 Comsenz Inc.

快速回复 返回顶部 返回列表