请选择 进入手机版 | 继续访问电脑版

中国高清论坛

 找回密码
 立即注册
搜索
查看: 63|回复: 12

[其 他] 最后一瞥 Last.Glimpse.2019.1080p.AMZN.WEBRip.DDP2.0.x264-iKA 2.5GB

[复制链接]

龙行天下

高清币
27320
金钱
5217
鲜花
20
在线时间
1222 小时
最后登录
2019-2-22
发表于 2019-2-2 00:31:00 | 显示全部楼层 |阅读模式
◎译  名 最后一瞥
◎片  名 Last Glimpse
◎年  代 2019
◎产  地 美国
◎类  别 真人秀
◎语  言 英语
◎IMDb评分 N/A
◎片  长 40 min
◎导  演 Josh Burstein
◎主  演 Josh Burstein ... Himself - Host



◎简  介  

  Welcome to a LAST GLIMPSE of "Modern Atlantis." Due to rising sea levels| the Maldives and its culture is on the brink. In this travel show with purpose| we meetyoung people taking action on the frontlines of change.

Video
ID : 1
Format : AVC
Format/Info : Advanced Video Codec
Format profile : High@L4
Format settings : CABAC / 4 Ref Frames
Format settings, CABAC : Yes
Format settings, ReFrames : 4 frames
Codec ID : V_MPEG4/ISO/AVC
Duration : 44 min 48 s
Bit rate : 7 767 kb/s
Width : 1 920 pixels
Height : 1 080 pixels
Display aspect ratio : 16:9
Frame rate mode : Constant
Frame rate : 23.976 (24000/1001) FPS
Color space : YUV
Chroma subsampling : 4:2:0
Bit depth : 8 bits
Scan type : Progressive
Bits/(Pixel*Frame) : 0.156
Stream size : 2.43 GiB (97%)
Language : English
Default : Yes
Forced : No
Color range : Limited
Color primaries : BT.709
Transfer characteristics : BT.709
Matrix coefficients : BT.709

Audio
ID : 2
Format : E-AC-3
Format/Info : Enhanced AC-3
Commercial name : Dolby Digital Plus
Codec ID : A_EAC3
Duration : 44 min 48 s
Bit rate mode : Constant
Bit rate : 224 kb/s
Channel(s) : 2 channels
Channel layout : L R
Sampling rate : 48.0 kHz
Frame rate : 31.250 FPS (1536 SPF)
Compression mode : Lossy
Stream size : 71.8 MiB (3%)
Language : English
Service kind : Complete Main
Default : Yes
Forced : No

Text
ID : 3
Format : UTF-8
Codec ID : S_TEXT/UTF8
Codec ID/Info : UTF-8 Plain Text
Duration : 42 min 44 s
Bit rate : 97 b/s
Count of elements : 827
Stream size : 30.6 KiB (0%)
Language : English
Default : No
Forced : No

游客,如果您要查看本帖隐藏内容请回复

回复

使用道具 举报

人气偶像

高清币
293
金钱
904
鲜花
0
在线时间
331 小时
最后登录
2019-2-22
发表于 2019-2-2 00:38:22 | 显示全部楼层

其实我一直觉得楼主的品味不错!呵呵!中国高清论坛太棒了!
回复 支持 反对

使用道具 举报

永恒神话

高清币
8251
金钱
29871
鲜花
10
在线时间
1885 小时
最后登录
2019-2-22
发表于 2019-2-2 00:42:17 | 显示全部楼层
感谢分享精彩好节目!!!
回复 支持 反对

使用道具 举报

好莱坞明星

高清币
1704
金钱
4845
鲜花
0
在线时间
799 小时
最后登录
2019-2-21
发表于 2019-2-2 01:42:24 | 显示全部楼层
楼主发贴辛苦了,谢谢楼主分享!我觉得中国高清论坛是注册对了!
回复 支持 反对

使用道具 举报

superstar

高清币
2845
金钱
14673
鲜花
0
在线时间
691 小时
最后登录
2019-2-21
发表于 2019-2-2 02:06:53 | 显示全部楼层

楼主太厉害了!楼主,电影应该很好看我觉得中国高清论坛真是个好地方!
回复 支持 反对

使用道具 举报

天王巨星

高清币
230
金钱
2711
鲜花
0
在线时间
788 小时
最后登录
2019-2-21
发表于 2019-2-2 04:38:16 | 显示全部楼层
楼主发贴辛苦了,谢谢楼主分享!我觉得中国高清论坛是注册对了!
回复 支持 反对

使用道具 举报

金鸡奖主角

高清币
789
金钱
3754
鲜花
0
在线时间
359 小时
最后登录
2019-2-22
发表于 2019-2-2 06:59:36 | 显示全部楼层

楼主太厉害了!楼主,电影应该很好看我觉得中国高清论坛真是个好地方!
回复 支持 反对

使用道具 举报

天王巨星

高清币
814
金钱
2110
鲜花
0
在线时间
79 小时
最后登录
2019-2-22
发表于 2019-2-2 08:07:01 | 显示全部楼层

楼主太厉害了!楼主,电影应该很好看我觉得中国高清论坛真是个好地方!
回复 支持 反对

使用道具 举报

金鸡奖主角

高清币
214
金钱
3367
鲜花
0
在线时间
269 小时
最后登录
2019-2-21
发表于 2019-2-2 08:10:29 | 显示全部楼层

这个帖子不回对不起自己!我想我是一天也不能离开中国高清论坛
回复 支持 反对

使用道具 举报

知名艺人

高清币
15
金钱
565
鲜花
0
在线时间
47 小时
最后登录
2019-2-22
发表于 2019-2-2 08:38:36 | 显示全部楼层
楼主发贴辛苦了,谢谢楼主分享!我觉得中国高清论坛是注册对了!
回复 支持 反对

使用道具 举报

懒得打字嘛,点击右侧快捷回复 【右侧内容,后台自定义】
您需要登录后才可以回帖 登录 | 立即注册

本版积分规则

QQ|手机版|小黑屋|中国高清论坛 ( 黔ICP备16007815号-1 )

GMT+8, 2019-2-22 10:34 , Processed in 0.105379 second(s), 28 queries .

Powered by Discuz! X3.4

© 2001-2017 Comsenz Inc.

快速回复 返回顶部 返回列表