请选择 进入手机版 | 继续访问电脑版

中国高清论坛

 找回密码
 立即注册
搜索
查看: 449|回复: 104

[科幻片] 科洛弗悖论 The.Cloverfield.Paradox.2018.720p.BluRay.x264.DTS-FGT 4.98GB

  [复制链接]

龙行天下

高清币
27312
金钱
5217
鲜花
20
在线时间
1222 小时
最后登录
2019-2-22
发表于 2019-2-2 21:38:28 | 显示全部楼层 |阅读模式

◎译  名 科洛弗悖论 / Cloverfield Station / God Particle / 上帝粒子 / 末世悖论(港) / 科洛弗档案3
◎片  名 The Cloverfield Paradox
◎年  代 2018
◎产  地 美国
◎类  别 科幻 / 悬疑 / 惊悚
◎语  言 英语 / 汉语普通话
◎上映日期 2018-02-04(美国)
◎IMDb评分 5.6/10 from 77919 users
◎豆瓣评分 5.9/10 from 12166 users
◎片  长 102分钟
◎导  演 朱利叶斯·约拿 Julius Onah
◎编  剧 奥伦·尤济尔 Oren Uziel / 道格·郑 Doug Jung
◎主  演 古古·姆巴塔-劳 Gugu Mbatha-Raw
      大卫·奥伊罗 David Oyelowo
      丹尼尔·布鲁尔 Daniel Brühl
      约翰·奥提兹 John Ortiz
      克里斯·奥多德 Chris O'Dowd
      阿卡塞尔·亨涅 Aksel Hennie
      章子怡 Ziyi Zhang
      伊丽莎白·德比茨基 Elizabeth Debicki
      罗杰·戴维斯 Roger Davies
      唐纳尔·罗格 Donal Logue
      苏珊·克莱尔 Suzanne Cryer
      肯·奥林 Ken Olin
      西蒙·佩吉 Simon Pegg
      格雷戈·格伦伯格 Greg Grunberg



◎简  介  

  未来,人们对资源的需求越来越大,可是地球上的资源已经不能再满足人类。于是地球上爆发了资源危机,并险些引发战争。唯一能阻止战争的只有空间站上的粒子加速器,如果实验成功,粒子加速器成功运转,那么它就能让人们用上源源不断的资源。可是在一次粒子加速器意外事件后,地球整个消失了,空间站上的宇航员开始试图弄清楚在他们身上发生了什么。但随着事情的一点点深入,真相慢慢浮现,更奇怪的事情也随之出现。

Video
ID : 1
Format : AVC
Format/Info : Advanced Video Codec
Format profile : High@L4.1
Format settings : CABAC / 4 Ref Frames
Format settings, CABAC : Yes
Format settings, ReFrames : 4 frames
Codec ID : V_MPEG4/ISO/AVC
Duration : 1 h 41 min
Bit rate : 5 500 kb/s
Width : 1 280 pixels
Height : 534 pixels
Display aspect ratio : 2.40:1
Original display aspect ratio : 2.40:1
Frame rate mode : Constant
Frame rate : 23.976 (24000/1001) FPS
Color space : YUV
Chroma subsampling : 4:2:0
Bit depth : 8 bits
Scan type : Progressive
Bits/(Pixel*Frame) : 0.336
Stream size : 3.91 GiB (78%)
Title : The.Cloverfield.Paradox.2018.720p.BluRay.x264.DTS-FGT
Writing library : x264 core 148 r2795M aaa9aa8
Encoding settings : cabac=1 / ref=4 / deblock=1:-2:-2 / analyse=0x3:0x113 / me=umh / subme=9 / psy=1 / psy_rd=1.00:0.15 / mixed_ref=1 / me_range=16 / chroma_me=1 / trellis=2 / 8x8dct=1 / cqm=0 / deadzone=21,11 / fast_pskip=1 / chroma_qp_offset=-3 / threads=24 / lookahead_threads=3 / sliced_threads=0 / nr=0 / decimate=1 / interlaced=0 / bluray_compat=0 / constrained_intra=0 / bframes=3 / b_pyramid=2 / b_adapt=1 / b_bias=0 / direct=3 / weightb=1 / open_gop=0 / weightp=2 / keyint=250 / keyint_min=25 / scenecut=40 / intra_refresh=0 / rc_lookahead=50 / rc=2pass / mbtree=1 / bitrate=5500 / ratetol=1.0 / qcomp=0.60 / qpmin=0 / qpmax=69 / qpstep=4 / cplxblur=20.0 / qblur=0.5 / vbv_maxrate=31250 / vbv_bufsize=31250 / nal_hrd=none / filler=0 / ip_ratio=1.40 / aq=1:1.00
Language : English
Default : Yes
Forced : No

Audio
ID : 2
Format : DTS
Format/Info : Digital Theater Systems
Codec ID : A_DTS
Duration : 1 h 41 min
Bit rate mode : Constant
Bit rate : 1 509 kb/s
Channel(s) : 6 channels
Channel layout : C L R Ls Rs LFE
Sampling rate : 48.0 kHz
Frame rate : 93.750 FPS (512 SPF)
Bit depth : 24 bits
Compression mode : Lossy
Stream size : 1.07 GiB (22%)
Title : The.Cloverfield.Paradox.2018.720p.BluRay.x264.DTS-FGT
Language : English
Default : Yes
Forced : No

Text #1
ID : 3
Format : UTF-8
Codec ID : S_TEXT/UTF8
Codec ID/Info : UTF-8 Plain Text
Duration : 1 h 35 min
Bit rate : 47 b/s
Count of elements : 1129
Stream size : 33.2 KiB (0%)
Language : English
Default : Yes
Forced : No

Text #2
ID : 4
Format : UTF-8
Codec ID : S_TEXT/UTF8
Codec ID/Info : UTF-8 Plain Text
Duration : 1 h 36 min
Bit rate : 55 b/s
Count of elements : 1342
Stream size : 39.0 KiB (0%)
Title : SDH
Language : English
Default : No
Forced : No

Menu
00:00:00.000 : en:Chapter 01
00:07:12.974 : en:Chapter 02
00:11:27.561 : en:Chapter 03
00:16:43.252 : en:Chapter 04
00:22:24.384 : en:Chapter 05
00:30:01.841 : en:Chapter 06
00:34:28.733 : en:Chapter 07
00:38:57.877 : en:Chapter 08
00:45:57.004 : en:Chapter 09
00:50:46.918 : en:Chapter 10
00:55:23.778 : en:Chapter 11
01:04:00.503 : en:Chapter 12
01:10:28.432 : en:Chapter 13
01:19:29.973 : en:Chapter 14
01:25:49.978 : en:Chapter 15
01:32:21.160 : en:Chapter 16
01:36:26.238 : en:Chapter 17

游客,如果您要查看本帖隐藏内容请回复

回复

使用道具 举报

人气偶像

高清币
9
金钱
1112
鲜花
0
在线时间
153 小时
最后登录
2019-2-16
发表于 2019-2-2 21:46:01 | 显示全部楼层
楼主发贴辛苦了,谢谢楼主分享!我觉得中国高清论坛是注册对了!
回复 支持 反对

使用道具 举报

天王巨星

高清币
151
金钱
3286
鲜花
0
在线时间
341 小时
最后登录
2019-2-22
发表于 2019-2-2 21:53:44 | 显示全部楼层

我看不错噢 谢谢楼主!中国高清论坛越来越好!
回复 支持 反对

使用道具 举报

超级明星

高清币
3484
金钱
3872
鲜花
0
在线时间
201 小时
最后登录
2019-2-3
发表于 2019-2-2 22:07:26 | 显示全部楼层
楼主太厉害了!楼主,电影应该很好看我觉得中国高清论坛真是个好地方!
回复 支持 反对

使用道具 举报

永恒神话

高清币
8248
金钱
29868
鲜花
10
在线时间
1885 小时
最后登录
2019-2-22
发表于 2019-2-2 22:13:25 | 显示全部楼层
感谢分享精彩好电影!!!
回复 支持 反对

使用道具 举报

人气偶像

高清币
19
金钱
928
鲜花
0
在线时间
94 小时
最后登录
2019-2-15
发表于 2019-2-2 22:17:50 | 显示全部楼层
多谢提供,继续努力。
回复 支持 反对

使用道具 举报

superstar

高清币
264
金钱
15131
鲜花
0
在线时间
1042 小时
最后登录
2019-2-22
发表于 2019-2-2 22:19:51 | 显示全部楼层

这个帖子不回对不起自己!我想我是一天也不能离开中国高清论坛
回复 支持 反对

使用道具 举报

superstar

高清币
264
金钱
15131
鲜花
0
在线时间
1042 小时
最后登录
2019-2-22
发表于 2019-2-2 22:20:09 | 显示全部楼层

我看不错噢 谢谢楼主!中国高清论坛越来越好!
回复 支持 反对

使用道具 举报

好莱坞明星

高清币
22
金钱
6667
鲜花
0
在线时间
1665 小时
最后登录
2019-2-22
发表于 2019-2-2 22:21:11 | 显示全部楼层
好东西啊,谢谢分享
回复 支持 反对

使用道具 举报

好莱坞明星

高清币
22
金钱
6667
鲜花
0
在线时间
1665 小时
最后登录
2019-2-22
发表于 2019-2-2 22:21:37 | 显示全部楼层

我看不错噢 谢谢楼主!中国高清论坛越来越好!
回复 支持 反对

使用道具 举报

懒得打字嘛,点击右侧快捷回复 【右侧内容,后台自定义】
您需要登录后才可以回帖 登录 | 立即注册

本版积分规则

QQ|手机版|小黑屋|中国高清论坛 ( 黔ICP备16007815号-1 )

GMT+8, 2019-2-22 10:16 , Processed in 0.109474 second(s), 29 queries .

Powered by Discuz! X3.4

© 2001-2017 Comsenz Inc.

快速回复 返回顶部 返回列表