请选择 进入手机版 | 继续访问电脑版

中国高清论坛

 找回密码
 立即注册
搜索
查看: 524|回复: 94

[科幻片] 犬舍 真人版【中字】Inuyashiki.2018.JAPANESE.720p.BluRay.x264.DTS-WiKi 4.98GB

  [复制链接]

龙行天下

高清币
27322
金钱
5217
鲜花
20
在线时间
1222 小时
最后登录
2019-2-22
发表于 2019-2-3 23:54:55 | 显示全部楼层 |阅读模式
p2513564342.jpg
◎译  名 犬舍 真人版/犬屋敷/杀戮重生犬屋敷(台)
◎片  名 いぬやしき/ Inuyashiki
◎年  代 2018
◎国  家 日本
◎类  别 剧情/科幻/惊悚
◎语  言 日语
◎IMDb评分 6.8/10 from 813 users
◎IMDB链接 http://www.imdb.com/title/tt6340500
◎片  长 2 h 6 min
◎导  演 佐藤信介 Shinsuke Sato
◎主  演 木梨宪武 Noritake Kinashi
      佐藤健 Takeru Satô
      本乡奏多 Kanata Hongô
      二阶堂富美 Fumi Nikaidou
      三吉彩花 Ayaka Miyoshi
      福崎那由他 Nayuta Fukuzaki
      滨田麻里 Mari Hamada
      齐藤由贵 Yuki Saitô
      伊势谷友介 Yûsuke Iseya


◎简  介

  《犬舍》根据同名漫画改编。故事讲述了平凡无奇、将近60岁的普通上班族‧犬屋敷, 在家里不受家人尊敬,也找不到自己活著的目标, 还被医生宣告将不久於人世。失意的他,却在公园与另一名少年被突如其来的外星生物砸到,整个身体都被摧毁了。不明的外星生物为了不影响地球的秩序,让犬屋敷和少年重生── 他们变成只有外表是人、身体却由机械所构成,拥有卓绝战斗能力的超强「人类」。两名尚拥有自己意志的「机械人类」会用这个力量作出什麼行动呢? 又会对世界带来什麼影响呢?

        
Video
ID : 1
Format : AVC
Format/Info : Advanced Video Codec
Format profile : High@L4.1
Format settings : CABAC / 12 Ref Frames
Format settings, CABAC : Yes
Format settings, ReFrames : 12 frames
Codec ID : V_MPEG4/ISO/AVC
Duration : 2 h 6 min
Bit rate : 4 814 kb/s
Width : 1 280 pixels
Height : 536 pixels
Display aspect ratio : 2.40:1
Frame rate mode : Constant
Frame rate : 23.976 (24000/1001) FPS
Color space : YUV
Chroma subsampling : 4:2:0
Bit depth : 8 bits
Scan type : Progressive
Bits/(Pixel*Frame) : 0.293
Stream size : 4.24 GiB (85%)
Title : x264_L4.1 @ 4,813 Kbps (crf 17)
Writing library : x264 core 129 r2245+704+36 8e61944 tMod+MixAQ [8-bit@4:2:0 X86_64]
Encoding settings : cabac=1 / ref=12 / deblock=1:-3:-3 / analyse=0x3:0x133 / me=umh / subme=11 / psy=1 / fade_compensate=0.00 / psy_rd=1.05:0.10 / mixed_ref=1 / me_range=32 / chroma_me=1 / trellis=2 / 8x8dct=1 / cqm=0 / deadzone=21,11 / fast_pskip=0 / chroma_qp_offset=-3 / threads=12 / lookahead_threads=2 / sliced_threads=0 / nr=0 / decimate=1 / interlaced=0 / bluray_compat=0 / constrained_intra=0 / fgo=0 / bframes=10 / b_pyramid=2 / b_adapt=2 / b_bias=0 / direct=3 / weightb=1 / open_gop=0 / weightp=2 / keyint=250 / keyint_min=23 / scenecut=40 / intra_refresh=0 / rc=crf / mbtree=0 / crf=17.0000 / qcomp=0.75 / qpmin=0 / qpmax=69 / qpstep=4 / ip_ratio=1.25 / pb_ratio=1.15 / aq=1 / aq-strength=0.65 / aq-sensitivity=10.00 / aq-ifactor=1.00 / aq-pfactor=1.00 / aq-bfactor=1.00 / aq2=0
Language : Japanese
Default : Yes
Forced : No


Audio
ID : 2
Format : DTS
Format/Info : Digital Theater Systems
Codec ID : A_DTS
Duration : 2 h 6 min
Bit rate mode : Constant
Bit rate : 768 kb/s
Channel(s) : 6 channels
Channel layout : C L R Ls Rs LFE
Sampling rate : 48.0 kHz
Frame rate : 93.750 FPS (512 SPF)
Bit depth : 24 bits
Compression mode : Lossy
Stream size : 693 MiB (14%)
Title : Japanese DTS 5.1 @ 768 Kbps
Language : Japanese
Default : Yes
Forced : No


Text #1
ID : 3
Format : PGS
Muxing mode : zlib
Codec ID : S_HDMV/PGS
Codec ID/Info : Picture based subtitle format used on BDs/HD-DVDs
Duration : 2 h 5 min
Bit rate : 133 kb/s
Count of elements : 7033
Stream size : 120 MiB (2%)
Title : Japanese (PGS)
Language : Japanese
Default : No
Forced : No


Text #2
ID : 4
Format : ASS
Codec ID : S_TEXT/ASS
Codec ID/Info : Advanced Sub Station Alpha
Duration : 2 h 0 min
Bit rate : 63 b/s
Count of elements : 1152
Compression mode : Lossless
Stream size : 56.6 KiB (0%)
Title : Traditional Chinese (SUBPIG)
Language : Chinese
Default : Yes
Forced : No


Menu
00:00:00.000 : :00:00:00.000
00:08:11.324 : :00:08:11.324
00:13:49.412 : :00:13:49.412
00:19:04.518 : :00:19:04.518
00:24:45.609 : :00:24:45.609
00:30:41.923 : :00:30:41.923
00:38:23.885 : :00:38:23.885
00:43:40.576 : :00:43:40.576
00:49:53.199 : :00:49:53.199
00:56:35.058 : :00:56:35.058
01:00:14.152 : :01:00:14.152
01:06:05.295 : :01:06:05.295
01:13:47.298 : :01:13:47.298
01:20:11.932 : :01:20:11.932
01:23:43.894 : :01:23:43.894
01:32:55.236 : :01:32:55.236
01:44:05.197 : :01:44:05.197
01:51:41.194 : :01:51:41.194
01:56:47.292 : :01:56:47.292
02:01:22.400 : :02:01:22.400






游客,如果您要查看本帖隐藏内容请回复

回复

使用道具 举报

永恒神话

高清币
8251
金钱
29871
鲜花
10
在线时间
1885 小时
最后登录
2019-2-22
发表于 2019-2-4 00:00:03 | 显示全部楼层
感谢分享精彩好电影!!!
回复 支持 反对

使用道具 举报

天王巨星

高清币
18
金钱
2144
鲜花
0
在线时间
189 小时
最后登录
2019-2-20
发表于 2019-2-4 00:02:56 | 显示全部楼层
][恶魔/魅惑心机][HD-MP4▓1.6G][日语中
回复 支持 反对

使用道具 举报

人气偶像

高清币
0
金钱
1743
鲜花
0
在线时间
433 小时
最后登录
2019-2-20
发表于 2019-2-4 00:08:38 | 显示全部楼层

既然你诚信诚意的推荐了,那我就勉为其难的看看吧!中国高清论坛不走平凡路。
回复 支持 反对

使用道具 举报

人气偶像

高清币
0
金钱
1743
鲜花
0
在线时间
433 小时
最后登录
2019-2-20
发表于 2019-2-4 00:08:56 | 显示全部楼层

其实我一直觉得楼主的品味不错!呵呵!中国高清论坛太棒了!
回复 支持 反对

使用道具 举报

永恒神话

高清币
2338
金钱
15419
鲜花
0
在线时间
2441 小时
最后登录
2019-2-22
发表于 2019-2-4 00:08:59 | 显示全部楼层

这东西我收了!谢谢楼主!中国高清论坛真好!
回复 支持 反对

使用道具 举报

永恒神话

高清币
8843
金钱
13255
鲜花
0
在线时间
765 小时
最后登录
2019-2-22
发表于 2019-2-4 00:09:27 | 显示全部楼层
感谢楼主分享精彩电影!
回复 支持 反对

使用道具 举报

超级明星

高清币
2710
金钱
6763
鲜花
0
在线时间
610 小时
最后登录
2019-2-22
发表于 2019-2-4 00:17:04 | 显示全部楼层
楼主发贴辛苦了,谢谢楼主分享!我觉得中国高清论坛是注册对了!
回复 支持 反对

使用道具 举报

禁止发言

高清币
24
金钱
28
鲜花
0
在线时间
1 小时
最后登录
2019-2-4
发表于 2019-2-4 00:22:47 | 显示全部楼层
提示: 作者被禁止或删除 内容自动屏蔽
回复 支持 反对

使用道具 举报

人气偶像

高清币
9
金钱
1250
鲜花
0
在线时间
334 小时
最后登录
2019-2-20
发表于 2019-2-4 00:32:57 | 显示全部楼层
这东西我收了!谢谢楼主
回复 支持 反对

使用道具 举报

懒得打字嘛,点击右侧快捷回复 【右侧内容,后台自定义】
您需要登录后才可以回帖 登录 | 立即注册

本版积分规则

QQ|手机版|小黑屋|中国高清论坛 ( 黔ICP备16007815号-1 )

GMT+8, 2019-2-22 11:20 , Processed in 0.122100 second(s), 29 queries .

Powered by Discuz! X3.4

© 2001-2017 Comsenz Inc.

快速回复 返回顶部 返回列表