请选择 进入手机版 | 继续访问电脑版

中国高清论坛

 找回密码
 立即注册
搜索
查看: 491|回复: 91

[喜剧片] 大智若愚 Nobodys.Fool.2018.720p.BluRay.x264-SAPHiRE 5.57GB

  [复制链接]

龙行天下

高清币
26413
金钱
5147
鲜花
20
在线时间
1203 小时
最后登录
2019-2-13
发表于 2019-2-4 00:51:49 | 显示全部楼层 |阅读模式
poster_opt (1).jpg
◎译  名 大智若愚 / The List / 名单
◎片  名 Nobody's Fool
◎年  代 2018
◎产  地 美国
◎类  别 剧情 / 喜剧
◎语  言 英语
◎上映日期 2018-11-02(美国)
◎IMDb评分 4.4/10 from 1819 users
◎IMDb链接 http://www.imdb.com/title/tt8097306
◎片  长 110分钟
◎导  演 泰勒·派瑞 Tyler Perry
◎编  剧 泰勒·派瑞 Tyler Perry
◎主  演 蒂凡尼·哈迪斯 Tiffany Haddish

      考特尼·海根勒 Courtney Henggeler

      米西·派勒 Missi Pyle

      乌比·戈德堡 Whoopi Goldberg

      提卡·森普特 Tika Sumpter

      欧玛瑞·哈德威克 Omari Hardwick

      麦卡德·布鲁克斯 Mehcad Brooks

      乔恩·鲁德尼茨基 Jon Rudnitsky

      安伯·莱利 Amber Riley

      玛丽亚·Z·威尔逊 Maria Z. Wilson

◎简  介


 蒂凡尼·哈迪斯 (《嗨翻姐妹行》)加盟泰勒·派瑞(《黑疯婆子的万圣节》《拜见布朗一家》)自编自导新片《名单》(The List),提卡·森普特和欧玛瑞·哈德威克参演。讲述女主角Danica(森普特)的狂野姐姐(哈迪斯)出狱,重新进入她的生活中后,Danica被迫接受可能被一个从未见过面的网聊男友诈骗的事实。
        
Video
ID : 1
Format : AVC
Format/Info : Advanced Video Codec
Format profile : High@L4.1
Format settings : CABAC / 5 Ref Frames
Format settings, CABAC : Yes
Format settings, ReFrames : 5 frames
Codec ID : V_MPEG4/ISO/AVC
Duration : 1 h 50 min
Bit rate : 5 573 kb/s
Width : 1 280 pixels
Height : 536 pixels
Display aspect ratio : 2.40:1
Frame rate mode : Constant
Frame rate : 23.976 (24000/1001) FPS
Color space : YUV
Chroma subsampling : 4:2:0
Bit depth : 8 bits
Scan type : Progressive
Bits/(Pixel*Frame) : 0.339
Stream size : 4.19 GiB (77%)
Writing library : x264 core 155 r2901 7d0ff22
Encoding settings : cabac=1 / ref=5 / deblock=1:0:0 / analyse=0x3:0x113 / me=umh / subme=8 / psy=1 / psy_rd=1.00:0.00 / mixed_ref=1 / me_range=16 / chroma_me=1 / trellis=1 / 8x8dct=1 / cqm=0 / deadzone=21,11 / fast_pskip=1 / chroma_qp_offset=-2 / threads=24 / lookahead_threads=4 / sliced_threads=0 / nr=0 / decimate=1 / interlaced=0 / bluray_compat=0 / constrained_intra=0 / bframes=3 / b_pyramid=2 / b_adapt=1 / b_bias=0 / direct=3 / weightb=1 / open_gop=0 / weightp=2 / keyint=240 / keyint_min=24 / scenecut=40 / intra_refresh=0 / rc_lookahead=50 / rc=2pass / mbtree=1 / bitrate=5573 / ratetol=1.0 / qcomp=0.60 / qpmin=0 / qpmax=69 / qpstep=4 / cplxblur=20.0 / qblur=0.5 / ip_ratio=1.40 / aq=1:1.00
Language : English
Default : Yes
Forced : No


Audio
ID : 2
Format : DTS
Format/Info : Digital Theater Systems
Codec ID : A_DTS
Duration : 1 h 50 min
Bit rate mode : Constant
Bit rate : 1 509 kb/s
Channel(s) : 6 channels
Channel layout : C L R Ls Rs LFE
Sampling rate : 48.0 kHz
Frame rate : 93.750 FPS (512 SPF)
Bit depth : 24 bits
Compression mode : Lossy
Stream size : 1.16 GiB (21%)
Language : English
Default : Yes
Forced : No


Text #1
ID : 3
Format : UTF-8
Codec ID : S_TEXT/UTF8
Codec ID/Info : UTF-8 Plain Text
Title : English regular
Language : English
Default : No
Forced : No


Text #2
ID : 4
Format : UTF-8
Codec ID : S_TEXT/UTF8
Codec ID/Info : UTF-8 Plain Text
Title : English sdh
Language : English
Default : No
Forced : No


Menu
00:00:00.000 : en:00:00:00.000
00:08:01.731 : en:00:08:01.731
00:12:05.975 : en:00:12:05.975
00:22:15.793 : en:00:22:15.793
00:30:30.829 : en:00:30:30.829
00:38:17.295 : en:00:38:17.295
00:46:45.386 : en:00:46:45.386
00:53:31.125 : en:00:53:31.125
01:02:06.306 : en:01:02:06.306
01:09:06.934 : en:01:09:06.934
01:13:29.155 : en:01:13:29.155
01:20:32.286 : en:01:20:32.286
01:25:34.087 : en:01:25:34.087
01:32:33.256 : en:01:32:33.256
01:37:10.491 : en:01:37:10.491
88760655961431247490_thumb.jpg
游客,如果您要查看本帖隐藏内容请回复


回复

使用道具 举报

人气偶像

高清币
0
金钱
654
鲜花
0
在线时间
100 小时
最后登录
2019-2-12
发表于 2019-2-4 00:59:08 | 显示全部楼层

楼主,大恩不言谢了!中国高清论坛是最棒的!
回复 支持 反对

使用道具 举报

永恒神话

高清币
42987
金钱
76958
鲜花
0
在线时间
1463 小时
最后登录
2019-2-15
发表于 2019-2-4 01:46:38 | 显示全部楼层

感谢楼主的无私分享!要想中国高清论坛好 就靠你我他
回复 支持 反对

使用道具 举报

永恒神话

高清币
42987
金钱
76958
鲜花
0
在线时间
1463 小时
最后登录
2019-2-15
发表于 2019-2-4 01:47:06 | 显示全部楼层

其实我一直觉得楼主的品味不错!呵呵!中国高清论坛太棒了!
回复 支持 反对

使用道具 举报

天王巨星

高清币
184
金钱
3045
鲜花
0
在线时间
683 小时
最后登录
2019-2-16
发表于 2019-2-4 02:34:39 | 显示全部楼层

感谢楼主的无私分享!要想中国高清论坛好 就靠你我他
回复 支持 反对

使用道具 举报

金鸡奖主角

高清币
237
金钱
2885
鲜花
0
在线时间
288 小时
最后登录
2019-2-13
发表于 2019-2-4 07:14:23 | 显示全部楼层
楼主发贴辛苦了,谢谢楼主分享!我觉得中国高清论坛是注册对了!
回复 支持 反对

使用道具 举报

superstar

高清币
279
金钱
15056
鲜花
0
在线时间
1036 小时
最后登录
2019-2-16
发表于 2019-2-4 07:45:53 | 显示全部楼层

我看不错噢 谢谢楼主!中国高清论坛越来越好!
回复 支持 反对

使用道具 举报

永恒神话

高清币
10810
金钱
12686
鲜花
0
在线时间
560 小时
最后登录
2019-2-16
发表于 2019-2-4 08:06:11 | 显示全部楼层

我看不错噢 谢谢楼主!中国高清论坛越来越好!
回复 支持 反对

使用道具 举报

永恒神话

高清币
8125
金钱
29636
鲜花
10
在线时间
1875 小时
最后登录
2019-2-16
发表于 2019-2-4 08:39:35 | 显示全部楼层
感谢分享精彩好电影!!!
回复 支持 反对

使用道具 举报

人气偶像

高清币
52
金钱
1348
鲜花
0
在线时间
721 小时
最后登录
2019-2-16
发表于 2019-2-4 08:41:03 | 显示全部楼层

论坛不能没有像楼主这样的人才啊!我会一直支持中国高清论坛
回复 支持 反对

使用道具 举报

懒得打字嘛,点击右侧快捷回复 【右侧内容,后台自定义】
您需要登录后才可以回帖 登录 | 立即注册

本版积分规则

QQ|手机版|小黑屋|中国高清论坛 ( 黔ICP备16007815号-1 )

GMT+8, 2019-2-16 13:06 , Processed in 0.112781 second(s), 29 queries .

Powered by Discuz! X3.4

© 2001-2017 Comsenz Inc.

快速回复 返回顶部 返回列表