请选择 进入手机版 | 继续访问电脑版

中国高清论坛

 找回密码
 立即注册
搜索
查看: 902|回复: 194

[动画片] 未来的未来[内封中字]Mirai.2018..720p.BluRay.x264-WiKi 3.75GB

  [复制链接]

龙行天下

高清币
27317
金钱
5217
鲜花
20
在线时间
1222 小时
最后登录
2019-2-22
发表于 2019-2-4 01:04:52 | 显示全部楼层 |阅读模式
MV5BZDhkMmJhZWQtNTA5Ny00NDYxLTg3NDctNzE2ZThmOGFjYmE3XkEyXkFqcGdeQXVyNDQxNjcxNQ@@._V1_.jpg
◎译  名 未来的未来/未来的“未来
◎片  名 Mirai
◎年  代 2018
◎国  家 日本
◎类  别 动画/奇幻
◎语  言 日语
◎IMDb评分 7.2/10 from 1545 users
◎IMDB链接 https://www.imdb.com/title/tt6900448/
◎片  长 1 h 37 min
◎导  演 细田守 Mamoru Hosoda
◎主  演 上白石萌歌 Moka Kamishiraishi
       黑木华 Haru Kuroki
       星野源 Gen Hoshino
       麻生久美子 Kumiko Aso
      

◎简  介

  《未来》将讲述一个4岁男孩的故事,随着家里新成员:一个小妹妹的到来,许多奇怪的事情接踵而来。男孩家的后院的花园里有一个神秘的通道,可以帮助孩子瞬间从外面回到家里。男孩的妈妈和曾祖父年轻的时候都在这里遇到过许多神奇的事情,这些充满魔幻色彩的经历让男孩无比向往,他决定踏上冒险之旅,成长为一个真正的哥哥。
◎获奖情况  

  第91届奥斯卡金像奖(2019)

  最佳动画长片(提名) 斋藤优一郎 / 细田守

  第71届戛纳电影节(2018)

  导演双周单元(提名) 细田守

  第76届金球奖(2019)

  电影类 最佳动画长片(提名)

  第42届日本电影学院奖(2019)

  最佳动画片(提名)

  第46届动画安妮奖(2019)

  最佳独立动画长片(提名)

  最佳编剧(提名) 细田守 / 斯蒂芬妮·社

  第24届美国评论家选择电影奖(2019)

  最佳动画片(提名)

  第23届金卫星奖(2019)

  电影部门 最佳动画片(提名

  第17届华盛顿影评人协会奖(2018)

  最佳动画片(提名)

  第17届旧金山影评人协会奖(2018)

  最佳动画片(提名)

  第22届美国在线影评人协会奖(2019)

  最佳动画片(提名)

Mirai.no.Mirai.1080p.Bluray.Flac.2.0.x264-Ohys-Raws

Video
ID : 1
Format : AVC
Format/Info : Advanced Video Codec
Format profile : High@L4.1
Format settings : CABAC / 9 Ref Frames
Format settings, CABAC : Yes
Format settings, ReFrames : 9 frames
Codec ID : V_MPEG4/ISO/AVC
Duration : 1 h 37 min
Bit rate : 4 200 kb/s
Width : 1 280 pixels
Height : 690 pixels
Display aspect ratio : 1.85:1
Frame rate mode : Constant
Frame rate : 24.000 FPS
Color space : YUV
Chroma subsampling : 4:2:0
Bit depth : 8 bits
Scan type : Progressive
Bits/(Pixel*Frame) : 0.198
Stream size : 2.80 GiB (75%)
Writing library : x264 core 130 r2273 b3065e6
Encoding settings : cabac=1 / ref=9 / deblock=1:-1:-1 / analyse=0x3:0x113 / me=umh / subme=11 / psy=1 / psy_rd=1.00:0.00 / mixed_ref=1 / me_range=32 / chroma_me=1 / trellis=2 / 8x8dct=1 / cqm=0 / deadzone=21,11 / fast_pskip=0 / chroma_qp_offset=-4 / threads=12 / lookahead_threads=2 / sliced_threads=0 / nr=0 / decimate=0 / interlaced=0 / bluray_compat=0 / constrained_intra=0 / bframes=8 / b_pyramid=2 / b_adapt=2 / b_bias=0 / direct=3 / weightb=1 / open_gop=0 / weightp=2 / keyint=250 / keyint_min=24 / scenecut=40 / intra_refresh=0 / rc_lookahead=80 / rc=2pass / mbtree=1 / bitrate=4200 / ratetol=1.0 / qcomp=0.60 / qpmin=0 / qpmax=69 / qpstep=4 / cplxblur=20.0 / qblur=0.5 / ip_ratio=1.40 / aq=1:0.60
Language : English
Default : Yes
Forced : No

Audio #1
ID : 2
Format : AC-3
Format/Info : Audio Coding 3
Commercial name : Dolby Digital
Codec ID : A_AC3
Duration : 1 h 37 min
Bit rate mode : Constant
Bit rate : 640 kb/s
Channel(s) : 6 channels
Channel layout : L R C LFE Ls Rs
Sampling rate : 48.0 kHz
Frame rate : 31.250 FPS (1536 SPF)
Bit depth : 16 bits
Compression mode : Lossy
Stream size : 448 MiB (12%)
Title : 日语
Language : Japanese
Service kind : Complete Main
Default : Yes
Forced : No

Audio #2
ID : 3
Format : AC-3
Format/Info : Audio Coding 3
Commercial name : Dolby Digital
Codec ID : A_AC3
Duration : 1 h 37 min
Bit rate mode : Constant
Bit rate : 640 kb/s
Channel(s) : 6 channels
Channel layout : L R C LFE Ls Rs
Sampling rate : 48.0 kHz
Frame rate : 31.250 FPS (1536 SPF)
Bit depth : 16 bits
Compression mode : Lossy
Stream size : 448 MiB (12%)
Title : 粤语
Language : Chinese
Service kind : Complete Main
Default : No
Forced : No
94102188713182220206_thumb.png
游客,如果您要查看本帖隐藏内容请回复
回复

使用道具 举报

金鸡奖主角

高清币
93
金钱
2668
鲜花
0
在线时间
188 小时
最后登录
2019-2-20
发表于 2019-2-4 01:22:53 | 显示全部楼层


感谢楼主的无私分享!
回复 支持 反对

使用道具 举报

人气偶像

高清币
0
金钱
1541
鲜花
0
在线时间
341 小时
最后登录
2019-2-20
发表于 2019-2-4 01:41:31 | 显示全部楼层

我看不错噢 谢谢楼主!中国高清论坛越来越好!
回复 支持 反对

使用道具 举报

永恒神话

高清币
43051
金钱
77070
鲜花
0
在线时间
1467 小时
最后登录
2019-2-22
发表于 2019-2-4 01:44:43 | 显示全部楼层

楼主太厉害了!楼主,电影应该很好看我觉得中国高清论坛真是个好地方!
回复 支持 反对

使用道具 举报

永恒神话

高清币
43051
金钱
77070
鲜花
0
在线时间
1467 小时
最后登录
2019-2-22
发表于 2019-2-4 01:45:18 | 显示全部楼层
楼主发贴辛苦了,谢谢楼主分享!我觉得中国高清论坛是注册对了!
回复 支持 反对

使用道具 举报

永恒神话

高清币
43051
金钱
77070
鲜花
0
在线时间
1467 小时
最后登录
2019-2-22
发表于 2019-2-4 01:46:02 | 显示全部楼层

我看不错噢 谢谢楼主!中国高清论坛越来越好!
回复 支持 反对

使用道具 举报

知名艺人

高清币
55
金钱
65
鲜花
0
在线时间
10 小时
最后登录
2019-2-9
发表于 2019-2-4 02:24:36 | 显示全部楼层
好的好的,haha
回复 支持 反对

使用道具 举报

金鸡奖主角

高清币
94
金钱
3508
鲜花
0
在线时间
636 小时
最后登录
2019-2-21
发表于 2019-2-4 03:10:13 | 显示全部楼层

这东西我收了!谢谢楼主!中国高清论坛真好!
回复 支持 反对

使用道具 举报

好莱坞明星

高清币
1447
金钱
6586
鲜花
0
在线时间
251 小时
最后登录
2019-2-22
发表于 2019-2-4 03:26:26 | 显示全部楼层
楼主发贴辛苦了,谢谢楼主分享!我觉得中国高清论坛是注册对了!
回复 支持 反对

使用道具 举报

人气偶像

高清币
283
金钱
1094
鲜花
0
在线时间
141 小时
最后登录
2019-2-22
发表于 2019-2-4 07:06:01 | 显示全部楼层
这部电影没看过
回复 支持 反对

使用道具 举报

懒得打字嘛,点击右侧快捷回复 【右侧内容,后台自定义】
您需要登录后才可以回帖 登录 | 立即注册

本版积分规则

QQ|手机版|小黑屋|中国高清论坛 ( 黔ICP备16007815号-1 )

GMT+8, 2019-2-22 10:23 , Processed in 0.105726 second(s), 29 queries .

Powered by Discuz! X3.4

© 2001-2017 Comsenz Inc.

快速回复 返回顶部 返回列表