请选择 进入手机版 | 继续访问电脑版

中国高清论坛

 找回密码
 立即注册
搜索
查看: 801|回复: 163

[科幻片] 致命勘探Prospect.2018.720p.WEB-DL.XviD.AC3-FGT 2.95GB

  [复制链接]

龙行天下

高清币
27321
金钱
5217
鲜花
20
在线时间
1222 小时
最后登录
2019-2-22
发表于 2019-2-5 04:47:52 | 显示全部楼层 |阅读模式
p2534513665.jpg
致命勘探Prospect.2018.720p.WEB-DL.XviD.AC3-FGT 2.95GB
导演: Chris Caldwell / Zeek Earl
编剧: Chris Caldwell / Zeek Earl
主演: 佩德罗·帕斯卡 / 杰伊·杜普拉斯 / Sophie Thatcher
类型: 科幻
制片国家/地区: 美国
语言: 英语
上映日期: 2018-03-10(西南偏南电影节)
片长: 98分钟
IMDb链接: tt7946422
致命勘探的剧情简介 · · · · · ·
  一个少女和她父亲来到外星球勘察神秘矿石,但那座充满危险的森林里还有其他人,很快勘探变成了一场绝命逃亡。


Video
ID : 0
Format : MPEG-4 Visual
Format profile : Simple@L5
Format settings, BVOP : No
Format settings, QPel : No
Format settings, GMC : No warppoints
Format settings, Matrix : Default (H.263)
Codec ID : XVID
Codec ID/Hint : XviD
Duration : 1 h 39 min
Bit rate : 3 844 kb/s
Width : 1 280 pixels
Height : 688 pixels
Display aspect ratio : 1.85:1
Frame rate : 24.000 FPS
Color space : YUV
Chroma subsampling : 4:2:0
Bit depth : 8 bits
Scan type : Progressive
Compression mode : Lossy
Bits/(Pixel*Frame) : 0.182
Stream size : 2.68 GiB (91%)
Writing library : Lavc58.1.100


Audio
ID : 1
Format : AC-3
Format/Info : Audio Coding 3
Commercial name : Dolby Digital
Codec ID : 2000
Duration : 1 h 39 min
Bit rate mode : Constant
Bit rate : 384 kb/s
Channel(s) : 6 channels
Channel layout : L R C LFE Ls Rs
Sampling rate : 48.0 kHz
Frame rate : 31.250 FPS (1536 SPF)
Bit depth : 16 bits
Compression mode : Lossy
Stream size : 274 MiB (9%)
Alignment : Aligned on interleaves
Interleave, duration : 42 ms (1.00 video frame)
Interleave, preload duration : 512 ms
Service kind : Complete Main
17990671619701117036_thumb.png 43606619738841323379_thumb.png 87134166057899807935_thumb.png
游客,如果您要查看本帖隐藏内容请回复


回复

使用道具 举报

天王巨星

高清币
230
金钱
2711
鲜花
0
在线时间
788 小时
最后登录
2019-2-21
发表于 2019-2-5 06:49:28 | 显示全部楼层
楼主发贴辛苦了,谢谢楼主分享!我觉得中国高清论坛是注册对了!
回复 支持 反对

使用道具 举报

超级明星

高清币
638
金钱
7452
鲜花
0
在线时间
3317 小时
最后登录
2019-2-22
发表于 2019-2-5 08:28:45 | 显示全部楼层
科幻片好啊。
回复 支持 反对

使用道具 举报

影坛巨星

高清币
1030
金钱
11376
鲜花
0
在线时间
1816 小时
最后登录
2019-2-22
发表于 2019-2-5 08:33:32 | 显示全部楼层
楼主发贴辛苦了,谢谢楼主分享!我觉得中国高清论坛是注册对了!
回复 支持 反对

使用道具 举报

永恒神话

高清币
8843
金钱
13255
鲜花
0
在线时间
765 小时
最后登录
2019-2-22
发表于 2019-2-5 09:10:39 | 显示全部楼层
感谢楼主分享精彩电影!
回复 支持 反对

使用道具 举报

金鸡奖主角

高清币
418
金钱
6858
鲜花
0
在线时间
923 小时
最后登录
2019-2-21
发表于 2019-2-5 09:12:39 | 显示全部楼层
回复看地址
回复 支持 反对

使用道具 举报

超级明星

高清币
13
金钱
9152
鲜花
0
在线时间
552 小时
最后登录
2019-2-22
发表于 2019-2-5 09:27:53 | 显示全部楼层

这东西我收了!谢谢楼主!中国高清论坛真好!
回复 支持 反对

使用道具 举报

天王巨星

高清币
814
金钱
2110
鲜花
0
在线时间
79 小时
最后登录
2019-2-22
发表于 2019-2-5 09:38:45 | 显示全部楼层

这个帖子不回对不起自己!我想我是一天也不能离开中国高清论坛
回复 支持 反对

使用道具 举报

人气偶像

高清币
253
金钱
985
鲜花
0
在线时间
188 小时
最后登录
2019-2-22
发表于 2019-2-5 09:39:56 | 显示全部楼层
楼主发贴辛苦了,谢谢楼主分享!我觉得中国高清论坛是注册对了!
回复 支持 反对

使用道具 举报

人气偶像

高清币
1
金钱
1070
鲜花
0
在线时间
174 小时
最后登录
2019-2-8
发表于 2019-2-5 09:41:10 | 显示全部楼层

这东西我收了!谢谢楼主!中国高清论坛真好!
回复 支持 反对

使用道具 举报

懒得打字嘛,点击右侧快捷回复 【右侧内容,后台自定义】
您需要登录后才可以回帖 登录 | 立即注册

本版积分规则

QQ|手机版|小黑屋|中国高清论坛 ( 黔ICP备16007815号-1 )

GMT+8, 2019-2-22 11:14 , Processed in 0.100392 second(s), 29 queries .

Powered by Discuz! X3.4

© 2001-2017 Comsenz Inc.

快速回复 返回顶部 返回列表