请选择 进入手机版 | 继续访问电脑版

中国高清论坛

 找回密码
 立即注册
搜索
查看: 2655|回复: 618

[战争片] 安市城/浴血围城88天(台) The.Great.Battle.2018.BDRip.1080p-Unknown 17.78 GiB

  [复制链接]

区域版主

高清币
14724
金钱
34487
鲜花
-88
在线时间
10987 小时
最后登录
2019-2-17
发表于 2019-2-5 07:24:51 | 显示全部楼层 |阅读模式


◎译  名 安市城/安市城:被遗弃者之城/浴血围城88天(台)
◎片  名 The Great Battle
◎年  代 2018
◎国  家 韩国
◎类  别 剧情/传记/历史/战争
◎语  言 韩语...
◎IMDb评分 6.9/10 from 522 users
◎IMDB链接 https://www.imdb.com/title/tt6931414
◎片  长 2 h 16 min
◎导  演   金光植 Kwang-shik Kim
◎主  演 赵寅成 In-seong Jo
                  南柱赫 Ju-Hyuk Nam
                  朴圣雄 Seong-Woong Park
                  金雪炫 Kim Seol Hyun


◎简  介

  故事讲述唐朝50万大军攻打安市城,城主杨万春(赵寅成饰)遂带领高句丽将士与唐朝大军进行浴血奋战,死守88天。

  1. Источник: The.Great.Battle.2018.KOREAN.1080p.BluRay.x264.DTS-HDC
  2. General
  3. Unique ID : 226895798593598920014455418322936465553 (0xAAB28A911C398CC491AD89ED774D0891)
  4. Complete name : The.Great.Battle.2018.BDRip.1080p.mkv
  5. Format : Matroska
  6. Format version : Version 4 / Version 2
  7. File size : 17.8 GiB
  8. Duration : 2 h 16 min
  9. Overall bit rate : 18.7 Mb/s
  10. Encoded date : UTC 2019-02-04 00:19:09
  11. Writing application : mkvmerge v7.1.0 ('Good Love') 64bit built on Jul 27 2014 13:06:55
  12. Writing library : libebml v1.3.0 + libmatroska v1.4.1

  13. Video
  14. ID : 1
  15. Format : AVC
  16. Format/Info : Advanced Video Codec
  17. Format profile : High@L4.1
  18. Format settings, CABAC : Yes
  19. Format settings, RefFrames : 5 frames
  20. Codec ID : V_MPEG4/ISO/AVC
  21. Duration : 2 h 16 min
  22. Bit rate : 18.0 Mb/s
  23. Width : 1 920 pixels
  24. Height : 804 pixels
  25. Display aspect ratio : 2.40:1
  26. Frame rate mode : Constant
  27. Frame rate : 24.000 FPS
  28. Color space : YUV
  29. Chroma subsampling : 4:2:0
  30. Bit depth : 8 bits
  31. Scan type : Progressive
  32. Bits/(Pixel*Frame) : 0.486
  33. Stream size : 17.1 GiB (96%)
  34. Writing library : x264 core 142 r2431+42 c69a006 tMod [8-bit@all X86_64]
  35. Encoding settings : cabac=1 / ref=5 / deblock=1:-3:-3 / analyse=0x3:0x133 / me=umh / subme=11 / psy=1 / fade_compensate=0.00 / psy_rd=1.05:0.00 / mixed_ref=1 / me_range=48 / chroma_me=1 / trellis=2 / 8x8dct=1 / cqm=0 / deadzone=21,11 / fast_pskip=0 / chroma_qp_offset=-2 / threads=16 / lookahead_threads=1 / sliced_threads=0 / nr=0 / decimate=0 / interlaced=0 / bluray_compat=0 / constrained_intra=0 / fgo=0 / bframes=8 / b_pyramid=2 / b_adapt=2 / b_bias=0 / direct=3 / weightb=1 / open_gop=0 / weightp=2 / keyint=240 / keyint_min=24 / scenecut=40 / intra_refresh=0 / rc_lookahead=40 / rc=2pass / mbtree=0 / bitrate=18000 / ratetol=1.0 / qcomp=0.70 / qpmin=0:0:0 / qpmax=69:69:69 / qpstep=4 / cplxblur=20.0 / qblur=0.5 / vbv_maxrate=50000 / vbv_bufsize=45000 / nal_hrd=none / filler=0 / ip_ratio=1.25 / pb_ratio=1.15 / aq=3:0.85 / aq-sensitivity=10.00 / aq-factor=1.00:1.00:1.00 / aq2=0 / aq3=0
  36. Default : Yes
  37. Forced : No

  38. Audio #1
  39. ID : 2
  40. Format : AC-3
  41. Format/Info : Audio Coding 3
  42. Format settings, Endianness : Big
  43. Codec ID : A_AC3
  44. Duration : 2 h 16 min
  45. Bit rate mode : Constant
  46. Bit rate : 256 kb/s
  47. Channel(s) : 2 channels
  48. Channel positions : Front: L R
  49. Sampling rate : 48.0 kHz
  50. Frame rate : 31.250 FPS (1536 SPF)
  51. Bit depth : 16 bits
  52. Compression mode : Lossy
  53. Stream size : 249 MiB (1%)
  54. Language : Russian
  55. Service kind : Complete Main
  56. Default : Yes
  57. Forced : No

  58. Audio #2
  59. ID : 3
  60. Format : AC-3
  61. Format/Info : Audio Coding 3
  62. Format settings, Endianness : Big
  63. Codec ID : A_AC3
  64. Duration : 2 h 16 min
  65. Bit rate mode : Constant
  66. Bit rate : 448 kb/s
  67. Channel(s) : 6 channels
  68. Channel positions : Front: L C R, Side: L R, LFE
  69. Sampling rate : 48.0 kHz
  70. Frame rate : 31.250 FPS (1536 SPF)
  71. Bit depth : 16 bits
  72. Compression mode : Lossy
  73. Stream size : 436 MiB (2%)
  74. Language : Korean
  75. Service kind : Complete Main
  76. Default : No
  77. Forced : No

  78. Text #1
  79. ID : 4
  80. Format : UTF-8
  81. Codec ID : S_TEXT/UTF8
  82. Codec ID/Info : UTF-8 Plain Text
  83. Duration : 2 h 12 min
  84. Bit rate : 44 b/s
  85. Count of elements : 933
  86. Stream size : 42.9 KiB (0%)
  87. Language : Russian
  88. Default : No
  89. Forced : No

  90. Text #2
  91. ID : 5
  92. Format : UTF-8
  93. Codec ID : S_TEXT/UTF8
  94. Codec ID/Info : UTF-8 Plain Text
  95. Duration : 2 h 11 min
  96. Bit rate : 24 b/s
  97. Count of elements : 926
  98. Stream size : 23.5 KiB (0%)
  99. Language : English
  100. Default : No
  101. Forced : No

  102. Menu
  103. 00:00:00.000 : :00:00:00.000
  104. 00:10:09.708 : :00:10:09.708
  105. 00:20:26.750 : :00:20:26.750
  106. 00:29:07.708 : :00:29:07.708
  107. 00:38:23.250 : :00:38:23.250
  108. 00:48:05.542 : :00:48:05.542
  109. 01:00:10.917 : :01:00:10.917
  110. 01:15:59.083 : :01:15:59.083
  111. 01:25:44.292 : :01:25:44.292
  112. 01:33:48.333 : :01:33:48.333
  113. 01:44:57.750 : :01:44:57.750
  114. 01:55:34.125 : :01:55:34.125
  115. 02:12:26.125 : :02:12:26.125
复制代码


游客,如果您要查看本帖隐藏内容请回复

回复

使用道具 举报

人气偶像

高清币
42
金钱
1713
鲜花
0
在线时间
362 小时
最后登录
2019-2-14
发表于 2019-2-9 21:51:27 | 显示全部楼层

这个帖子不回对不起自己!我想我是一天也不能离开中国高清论坛
回复 支持 1 反对 0

使用道具 举报

金鸡奖主角

高清币
95
金钱
4433
鲜花
0
在线时间
767 小时
最后登录
2019-2-17
发表于 2019-2-9 21:55:50 | 显示全部楼层

我看不错噢 谢谢楼主!中国高清论坛越来越好!
回复 支持 1 反对 0

使用道具 举报

跑龙套

高清币
28
金钱
40
鲜花
0
在线时间
8 小时
最后登录
2019-2-17
发表于 2019-2-9 21:54:23 | 显示全部楼层
全网最新箩.莉.幼.幼在线观看:

http://82k.xyz/portal.php?x=625933
回复 支持 1 反对 0

使用道具 举报

永恒神话

高清币
36476
金钱
71001
鲜花
0
在线时间
5753 小时
最后登录
2019-2-17
发表于 2019-2-5 07:38:21 | 显示全部楼层

楼主太厉害了!楼主,电影应该很好看我觉得中国高清论坛真是个好地方!
回复 支持 反对

使用道具 举报

天王巨星

高清币
6
金钱
3524
鲜花
0
在线时间
1357 小时
最后登录
2019-2-17
发表于 2019-2-5 07:45:30 | 显示全部楼层
楼主发贴辛苦了,谢谢楼主分享!我觉得中国高清论坛是注册对了!
回复 支持 反对

使用道具 举报

天王巨星

高清币
36
金钱
2573
鲜花
0
在线时间
588 小时
最后登录
2019-2-17
发表于 2019-2-5 07:45:41 | 显示全部楼层
楼主发贴辛苦了,谢谢楼主分享!我觉得中国高清论坛是注册对了!
回复 支持 反对

使用道具 举报

天王巨星

高清币
6
金钱
3524
鲜花
0
在线时间
1357 小时
最后登录
2019-2-17
发表于 2019-2-5 07:45:49 | 显示全部楼层

这个帖子不回对不起自己!我想我是一天也不能离开中国高清论坛
回复 支持 反对

使用道具 举报

天王巨星

高清币
6
金钱
3524
鲜花
0
在线时间
1357 小时
最后登录
2019-2-17
发表于 2019-2-5 07:47:16 | 显示全部楼层

这东西我收了!谢谢楼主!中国高清论坛真好!
回复 支持 反对

使用道具 举报

天王巨星

高清币
6
金钱
3524
鲜花
0
在线时间
1357 小时
最后登录
2019-2-17
发表于 2019-2-5 08:01:01 | 显示全部楼层

楼主太厉害了!楼主,电影应该很好看我觉得中国高清论坛真是个好地方!
回复 支持 反对

使用道具 举报

永恒神话

高清币
10826
金钱
12707
鲜花
0
在线时间
561 小时
最后登录
2019-2-17
发表于 2019-2-5 08:02:33 | 显示全部楼层

我看不错噢 谢谢楼主!中国高清论坛越来越好!
回复 支持 反对

使用道具 举报

金鸡奖主角

高清币
86
金钱
4300
鲜花
0
在线时间
671 小时
最后登录
2019-2-17
发表于 2019-2-5 08:12:15 | 显示全部楼层
楼主发贴辛苦了,谢谢楼主分享!我觉得中国高清论坛是注册对了!
回复 支持 反对

使用道具 举报

金鸡奖主角

高清币
504
金钱
5029
鲜花
0
在线时间
910 小时
最后登录
2019-2-17
发表于 2019-2-5 08:13:19 | 显示全部楼层

这个帖子不回对不起自己!我想我是一天也不能离开中国高清论坛
回复 支持 反对

使用道具 举报

懒得打字嘛,点击右侧快捷回复 【右侧内容,后台自定义】
您需要登录后才可以回帖 登录 | 立即注册

本版积分规则

QQ|手机版|小黑屋|中国高清论坛 ( 黔ICP备16007815号-1 )

GMT+8, 2019-2-17 21:54 , Processed in 0.130586 second(s), 30 queries .

Powered by Discuz! X3.4

© 2001-2017 Comsenz Inc.

快速回复 返回顶部 返回列表