请选择 进入手机版 | 继续访问电脑版

中国高清论坛

 找回密码
 立即注册
搜索
查看: 876|回复: 182

[恐怖片] 地面之洞/婴魂不散 The.Hole.in.the.Ground.2019.1080p.WEB-DL.DD5.1.H264-FGT

  [复制链接]

区域版主

高清币
14722
金钱
34483
鲜花
-88
在线时间
10987 小时
最后登录
2019-2-17
发表于 2019-2-6 20:55:39 | 显示全部楼层 |阅读模式



◎译  名 地面之洞/婴魂不散
◎片  名 The Hole in the Ground
◎年  代 2019
◎国  家 爱尔兰/芬兰
◎类  别 恐怖
◎语  言 英语
◎IMDb评分 7.2/10 from 58 users
◎IMDB链接 http://www.imdb.com/title/tt6198946
◎片  长 1 h 30 min
◎导  演 Lee Cronin
◎主  演 莎娜·凯斯雷克 Seána Kerslake
       詹姆斯·卡沙莫 James Cosmo
       卡蒂·奥廷宁 Kati Outinen
       James Quinn Markey
       西蒙妮·柯比 Simone Kirby
       Steve Wall

◎简  介

  一晚,儿子离奇失踪,妈妈遍寻不著连忙报警,儿子却突然现身「我哪都没去啊!」;那天起,妈妈需要靠著药物治疗病症,却发现熟悉的儿子渐渐陌生,彷若被鬼魅控制取代…
  1. Video
  2. ID : 1
  3. Format : AVC
  4. Format/Info : Advanced Video Codec
  5. Format profile : High@L4
  6. Format settings : CABAC / 5 Ref Frames
  7. Format settings, CABAC : Yes
  8. Format settings, ReFrames : 5 frames
  9. Codec ID : V_MPEG4/ISO/AVC
  10. Duration : 1 h 30 min
  11. Bit rate : 4 617 kb/s
  12. Width : 1 916 pixels
  13. Height : 800 pixels
  14. Display aspect ratio : 2.40:1
  15. Frame rate mode : Constant
  16. Frame rate : 23.976 (23976/1000) FPS
  17. Color space : YUV
  18. Chroma subsampling : 4:2:0
  19. Bit depth : 8 bits
  20. Scan type : Progressive
  21. Bits/(Pixel*Frame) : 0.126
  22. Stream size : 2.92 GiB (92%)
  23. Title : The.Hole.in.the.Ground.2019.1080p.WEB-DL.DD5.1.H264-FGT
  24. Language : English
  25. Default : Yes
  26. Forced : No
  27. Color range : Limited
  28. Color primaries : BT.709
  29. Transfer characteristics : BT.709
  30. Matrix coefficients : BT.709

  31. Audio
  32. ID : 2
  33. Format : AC-3
  34. Format/Info : Audio Coding 3
  35. Commercial name : Dolby Digital
  36. Codec ID : A_AC3
  37. Duration : 1 h 30 min
  38. Bit rate mode : Constant
  39. Bit rate : 384 kb/s
  40. Channel(s) : 6 channels
  41. Channel layout : L R C LFE Ls Rs
  42. Sampling rate : 48.0 kHz
  43. Frame rate : 31.250 FPS (1536 SPF)
  44. Bit depth : 16 bits
  45. Compression mode : Lossy
  46. Stream size : 249 MiB (8%)
  47. Title : The.Hole.in.the.Ground.2019.1080p.WEB-DL.DD5.1.H264-FGT
  48. Language : English
  49. Service kind : Complete Main
  50. Default : Yes
  51. Forced : No

  52. Menu
  53. 00:00:00.000 : en:1
  54. 00:06:17.085 : en:2
  55. 00:12:20.698 : en:3
  56. 00:15:12.618 : en:4
  57. 00:22:42.901 : en:5
  58. 00:26:10.900 : en:6
  59. 00:32:59.016 : en:7
  60. 00:40:11.448 : en:8
  61. 00:43:49.415 : en:9
  62. 00:50:35.445 : en:10
  63. 00:56:52.946 : en:11
  64. 01:01:20.672 : en:12
  65. 01:04:48.545 : en:13
  66. 01:10:29.594 : en:14
  67. 01:19:02.064 : en:15
  68. 01:22:26.476 : en:16
复制代码








游客,如果您要查看本帖隐藏内容请回复
回复

使用道具 举报

人气偶像

高清币
90
金钱
689
鲜花
0
在线时间
136 小时
最后登录
2019-2-17
发表于 2019-2-6 20:55:56 | 显示全部楼层

楼主太厉害了!楼主,电影应该很好看我觉得中国高清论坛真是个好地方!
回复 支持 反对

使用道具 举报

永恒神话

高清币
8775
金钱
13134
鲜花
0
在线时间
753 小时
最后登录
2019-2-17
发表于 2019-2-6 20:56:55 | 显示全部楼层
楼主发贴辛苦了,谢谢楼主分享!我觉得中国高清论坛是注册对了!
回复 支持 反对

使用道具 举报

永恒神话

高清币
7037
金钱
14783
鲜花
0
在线时间
748 小时
最后登录
2019-2-17
发表于 2019-2-6 20:59:06 | 显示全部楼层
楼主发贴辛苦了,谢谢楼主分享!我觉得中国高清论坛是注册对了!
回复 支持 反对

使用道具 举报

天王巨星

高清币
802
金钱
1768
鲜花
0
在线时间
215 小时
最后登录
2019-2-17
发表于 2019-2-6 21:00:26 | 显示全部楼层

楼主太厉害了!楼主,电影应该很好看我觉得中国高清论坛真是个好地方!
回复 支持 反对

使用道具 举报

人气偶像

高清币
141
金钱
753
鲜花
0
在线时间
51 小时
最后登录
2019-2-17
发表于 2019-2-6 21:01:50 | 显示全部楼层
楼主发贴辛苦了,谢谢楼主分享!我觉得中国高清论坛是注册对了!
回复 支持 反对

使用道具 举报

好莱坞明星

高清币
2353
金钱
3147
鲜花
0
在线时间
352 小时
最后登录
2019-2-17
发表于 2019-2-6 21:02:42 | 显示全部楼层

感谢楼主的无私分享!要想中国高清论坛好 就靠你我他
回复 支持 反对

使用道具 举报

超级明星

高清币
1796
金钱
6851
鲜花
0
在线时间
1265 小时
最后登录
2019-2-17
发表于 2019-2-6 21:03:31 | 显示全部楼层

这个帖子不回对不起自己!我想我是一天也不能离开中国高清论坛
回复 支持 反对

使用道具 举报

人气偶像

高清币
0
金钱
987
鲜花
0
在线时间
270 小时
最后登录
2019-2-16
发表于 2019-2-6 21:08:07 | 显示全部楼层
dddddddddddddddddddddddddddd
回复 支持 反对

使用道具 举报

好莱坞明星

高清币
893
金钱
5720
鲜花
0
在线时间
2464 小时
最后登录
2019-2-17
发表于 2019-2-6 21:11:56 | 显示全部楼层

楼主太厉害了!楼主,电影应该很好看我觉得中国高清论坛真是个好地方!
回复 支持 反对

使用道具 举报

懒得打字嘛,点击右侧快捷回复 【右侧内容,后台自定义】
您需要登录后才可以回帖 登录 | 立即注册

本版积分规则

QQ|手机版|小黑屋|中国高清论坛 ( 黔ICP备16007815号-1 )

GMT+8, 2019-2-17 21:23 , Processed in 0.112085 second(s), 29 queries .

Powered by Discuz! X3.4

© 2001-2017 Comsenz Inc.

快速回复 返回顶部 返回列表