请选择 进入手机版 | 继续访问电脑版

中国高清论坛

 找回密码
 立即注册
搜索
查看: 558|回复: 73

[恐怖片] 高潮Climax.2018.FRENCH.720p.BluRay.x264.DTS-FGT 4.72GB

  [复制链接]

龙行天下

高清币
27321
金钱
5217
鲜花
20
在线时间
1222 小时
最后登录
2019-2-22
发表于 2019-2-8 20:23:26 | 显示全部楼层 |阅读模式
poster_opt.jpg
◎译  名 高潮/舞·极乐(港)
◎片  名 Climax
◎年  代 2018
◎产  地 法国
◎类  别 剧情/恐怖/歌舞
◎语  言 法语/英语
◎上映日期 2018-05-13(戛纳电影节)/2018-09-19(法国)
◎IMDb评分 7.5/10 from 10,115 users
◎IMDb链接 https://www.imdb.com/title/tt8359848/
◎豆瓣评分 7.0/10 from 521 users
◎豆瓣链接 https://douban.com/subject/30154537/
◎片  长 95分钟
◎导  演 加斯帕·诺 Gaspar Noé
◎编  剧 加斯帕·诺 Gaspar Noé
◎主  演 索菲亚·波多拉 Sofia Boutella
      Romain Guillermic
      Souheila Yacoub
      Kiddy Smile
      Claude Gajan Maull
      Giselle Palmer
      Taylor Kastle
      Thea Carla Schott
      Sharleen Temple
      Lea Vlamos


◎标  签 法国 | 2018 | 加斯帕·诺 | 戛纳 | 剧情 | GasparNoé | 加斯帕诺 | 情色


◎简  介


  故事设定在1990年,聚焦一群舞者共同参加为期3天的排演,后却变为通往毒品的地狱之旅,麻木使得有些人感觉置身天堂,但大多数人却陷入地狱

Video
ID : 1
Format : AVC
Format/Info : Advanced Video Codec
Format profile : High@L4.1
Format settings : CABAC / 4 Ref Frames
Format settings, CABAC : Yes
Format settings, ReFrames : 4 frames
Codec ID : V_MPEG4/ISO/AVC
Duration : 1 h 36 min
Bit rate : 5 500 kb/s
Width : 1 280 pixels
Height : 536 pixels
Display aspect ratio : 2.40:1
Frame rate mode : Constant
Frame rate : 23.976 (24000/1001) FPS
Color space : YUV
Chroma subsampling : 4:2:0
Bit depth : 8 bits
Scan type : Progressive
Bits/(Pixel*Frame) : 0.334
Stream size : 3.70 GiB (78%)
Title : Climax.2018.FRENCH.720p.BluRay.x264.DTS-FGT
Writing library : x264 core 148 r2748 97eaef2
Encoding settings : cabac=1 / ref=4 / deblock=1:-2:-2 / analyse=0x3:0x113 / me=umh / subme=9 / psy=1 / psy_rd=1.00:0.15 / mixed_ref=1 / me_range=16 / chroma_me=1 / trellis=2 / 8x8dct=1 / cqm=0 / deadzone=21,11 / fast_pskip=1 / chroma_qp_offset=-3 / threads=24 / lookahead_threads=3 / sliced_threads=0 / nr=0 / decimate=1 / interlaced=0 / bluray_compat=0 / constrained_intra=0 / bframes=3 / b_pyramid=2 / b_adapt=1 / b_bias=0 / direct=3 / weightb=1 / open_gop=0 / weightp=2 / keyint=250 / keyint_min=25 / scenecut=40 / intra_refresh=0 / rc_lookahead=50 / rc=2pass / mbtree=1 / bitrate=5500 / ratetol=1.0 / qcomp=0.60 / qpmin=0 / qpmax=69 / qpstep=4 / cplxblur=20.0 / qblur=0.5 / vbv_maxrate=31250 / vbv_bufsize=31250 / nal_hrd=none / filler=0 / ip_ratio=1.40 / aq=1:1.00
Language : English
Default : Yes
Forced : No

Audio
ID : 2
Format : DTS
Format/Info : Digital Theater Systems
Codec ID : A_DTS
Duration : 1 h 36 min
Bit rate mode : Constant
Bit rate : 1 509 kb/s
Channel(s) : 6 channels
Channel layout : C L R Ls Rs LFE
Sampling rate : 48.0 kHz
Frame rate : 93.750 FPS (512 SPF)
Bit depth : 24 bits
Compression mode : Lossy
Stream size : 1.02 GiB (22%)
Title : Climax.2018.FRENCH.720p.BluRay.x264.DTS-FGT
Language : French
Default : No
Forced : No

Text
ID : 3
Format : UTF-8
Codec ID : S_TEXT/UTF8
Codec ID/Info : UTF-8 Plain Text
Duration : 1 h 32 min
Bit rate : 28 b/s
Count of elements : 1046
Stream size : 19.3 KiB (0%)
Language : English
Default : Yes
Forced : Yes

Menu
00:00:00.000 : en:Chapter 01
00:09:34.782 : en:Chapter 02
00:15:17.708 : en:Chapter 03
00:23:33.370 : en:Chapter 04
00:31:16.416 : en:Chapter 05
00:37:39.048 : en:Chapter 06
00:47:18.418 : en:Chapter 07
00:54:03.198 : en:Chapter 08
01:04:59.353 : en:Chapter 09
01:11:01.966 : en:Chapter 10
01:20:35.622 : en:Chapter 11
01:30:17.036 : en:Chapter 12

35861141292011763857_thumb.png 39101803705118240892_thumb.png
游客,如果您要查看本帖隐藏内容请回复

回复

使用道具 举报

金鸡奖主角

高清币
251
金钱
2483
鲜花
0
在线时间
194 小时
最后登录
2019-2-22
发表于 2019-2-8 20:32:25 | 显示全部楼层
楼主发贴辛苦了,谢谢楼主分享!我觉得中国高清论坛是注册对了!
回复 支持 反对

使用道具 举报

人气偶像

高清币
112
金钱
1280
鲜花
0
在线时间
156 小时
最后登录
2019-2-21
发表于 2019-2-8 20:33:18 | 显示全部楼层
我看不错噢 谢谢楼主
回复 支持 反对

使用道具 举报

天王巨星

高清币
450
金钱
2293
鲜花
0
在线时间
534 小时
最后登录
2019-2-22
发表于 2019-2-8 20:46:51 | 显示全部楼层

这个帖子不回对不起自己!我想我是一天也不能离开中国高清论坛
回复 支持 反对

使用道具 举报

superstar

高清币
4625
金钱
10328
鲜花
0
在线时间
988 小时
最后登录
2019-2-21
发表于 2019-2-8 21:03:48 | 显示全部楼层
感谢楼主分享
回复 支持 反对

使用道具 举报

人气偶像

高清币
6
金钱
676
鲜花
0
在线时间
124 小时
最后登录
2019-2-19
发表于 2019-2-8 21:06:03 | 显示全部楼层
感谢楼主分享
回复 支持 反对

使用道具 举报

禁止发言

高清币
22
金钱
4398
鲜花
0
在线时间
1235 小时
最后登录
2019-2-17
发表于 2019-2-8 21:34:15 | 显示全部楼层
提示: 作者被禁止或删除 内容自动屏蔽
回复 支持 反对

使用道具 举报

知名艺人

高清币
19
金钱
159
鲜花
0
在线时间
23 小时
最后登录
2019-2-21
发表于 2019-2-8 21:34:35 | 显示全部楼层
被片名骗进来系列
回复 支持 反对

使用道具 举报

跑龙套

高清币
2
金钱
10
鲜花
0
在线时间
1 小时
最后登录
2019-2-10
发表于 2019-2-8 21:40:57 | 显示全部楼层
我看不错噢 谢谢楼主
回复 支持 反对

使用道具 举报

永恒神话

高清币
13648
金钱
19840
鲜花
0
在线时间
1337 小时
最后登录
2019-2-21
发表于 2019-2-8 21:55:27 | 显示全部楼层

这东西我收了!谢谢楼主!中国高清论坛真好!
回复 支持 反对

使用道具 举报

懒得打字嘛,点击右侧快捷回复 【右侧内容,后台自定义】
您需要登录后才可以回帖 登录 | 立即注册

本版积分规则

QQ|手机版|小黑屋|中国高清论坛 ( 黔ICP备16007815号-1 )

GMT+8, 2019-2-22 10:52 , Processed in 0.114906 second(s), 29 queries .

Powered by Discuz! X3.4

© 2001-2017 Comsenz Inc.

快速回复 返回顶部 返回列表