请选择 进入手机版 | 继续访问电脑版

中国高清论坛

 找回密码
 立即注册
搜索
查看: 206|回复: 41

[惊悚片] 领先者 The Front Runner (2018).720p.BluRay.x264-DRONES 5.50GB

[复制链接]

龙行天下

高清币
27321
金钱
5217
鲜花
20
在线时间
1222 小时
最后登录
2019-2-22
发表于 2019-2-8 23:03:16 | 显示全部楼层 |阅读模式
poster_opt.jpg
导演: 贾森·雷特曼
编剧: 贾森·雷特曼 / Jay Carson / Matt Bai
主演: 休·杰克曼 / 维拉·法米加 / 凯特琳·德弗 / 艾莉·葛瑞那/ J·K·西蒙斯 / 萨拉·帕克斯顿 / 乔什·布雷纳 / 迈克·乔吉 / 托比·胡斯 / 马克·奥布莱恩 / 凯文·波拉克 / 汤米·杜威 / 马莫多·阿西 / 斯宾塞·加雷特 / Molly Ephraim
类型: 剧情 / 传记
制片国家/地区: 美国
语言: 英语
上映日期: 2018-08-31(特柳赖德电影节) / 2018-11-21(美国)
片长: 113分钟
又名: The Frontrunner
IMDb链接: tt7074886

领先者的剧情简介 · · · · · ·  影片改编自真实故事,聚焦1988年美国民主党总统候选人加里·哈特(杰克曼饰)风光一时,却因丑闻戏剧性落败的故事。法米加将在片中出演加里·哈特妻子,西蒙斯扮演加里·哈特的竞选经理。

Video
ID : 1
Format : AVC
Format/Info : Advanced Video Codec
Format profile : High@L4.1
Format settings : CABAC / 5 Ref Frames
Format settings, CABAC : Yes
Format settings, ReFrames : 5 frames
Codec ID : V_MPEG4/ISO/AVC
Duration : 1 h 53 min
Bit rate : 5 381 kb/s
Width : 1 280 pixels
Height : 688 pixels
Display aspect ratio : 1.85:1
Frame rate mode : Constant
Frame rate : 23.976 (24000/1001) FPS
Color space : YUV
Chroma subsampling : 4:2:0
Bit depth : 8 bits
Scan type : Progressive
Bits/(Pixel*Frame) : 0.255
Stream size : 4.26 GiB (78%)
Writing library : x264 core 157 r2935 545de2f
Encoding settings : cabac=1 / ref=5 / deblock=1:-3:-3 / analyse=0x3:0x113 / me=umh / subme=8 / psy=1 / psy_rd=1.00:0.00 / mixed_ref=1 / me_range=16 / chroma_me=1 / trellis=1 / 8x8dct=1 / cqm=0 / deadzone=21,11 / fast_pskip=1 / chroma_qp_offset=-2 / threads=21 / lookahead_threads=3 / sliced_threads=0 / nr=0 / decimate=1 / interlaced=0 / bluray_compat=0 / constrained_intra=0 / bframes=3 / b_pyramid=2 / b_adapt=1 / b_bias=0 / direct=3 / weightb=1 / open_gop=0 / weightp=2 / keyint=250 / keyint_min=23 / scenecut=40 / intra_refresh=0 / rc_lookahead=50 / rc=2pass / mbtree=1 / bitrate=5381 / ratetol=1.0 / qcomp=0.60 / qpmin=0 / qpmax=69 / qpstep=4 / cplxblur=20.0 / qblur=0.5 / ip_ratio=1.40 / aq=1:1.00
Language : English
Default : Yes
Forced : No

Audio
ID : 2
Format : DTS
Format/Info : Digital Theater Systems
Codec ID : A_DTS
Duration : 1 h 53 min
Bit rate mode : Constant
Bit rate : 1 509 kb/s
Channel(s) : 6 channels
Channel layout : C L R Ls Rs LFE
Sampling rate : 48.0 kHz
Frame rate : 93.750 FPS (512 SPF)
Bit depth : 24 bits
Compression mode : Lossy
Stream size : 1.20 GiB (22%)
Language : English
Default : Yes
Forced : No

Menu
00:00:00.000 : en:00:00:00.000
00:08:02.607 : en:00:08:02.607
00:14:56.813 : en:00:14:56.813
00:19:32.505 : en:00:19:32.505
00:27:22.933 : en:00:27:22.933
00:34:31.945 : en:00:34:31.945
00:40:30.428 : en:00:40:30.428
00:45:55.962 : en:00:45:55.962
00:51:07.314 : en:00:51:07.314
00:58:52.112 : en:00:58:52.112
01:09:05.933 : en:01:09:05.933
01:15:57.762 : en:01:15:57.762
01:22:31.655 : en:01:22:31.655
01:29:28.738 : en:01:29:28.738
01:34:40.508 : en:01:34:40.508
01:41:31.919 : en:01:41:31.919

72516139794147136865_thumb.jpg
游客,如果您要查看本帖隐藏内容请回复



回复

使用道具 举报

超级明星

高清币
1055
金钱
7394
鲜花
0
在线时间
1465 小时
最后登录
2019-2-21
发表于 2019-2-8 23:04:00 | 显示全部楼层
楼主发贴辛苦了,谢谢楼主分享!我觉得中国高清论坛是注册对了!
回复 支持 反对

使用道具 举报

好莱坞明星

高清币
1447
金钱
6586
鲜花
0
在线时间
251 小时
最后登录
2019-2-22
发表于 2019-2-8 23:07:22 | 显示全部楼层
楼主发贴辛苦了,谢谢楼主分享!我觉得中国高清论坛是注册对了!
回复 支持 反对

使用道具 举报

人气偶像

高清币
331
金钱
1257
鲜花
0
在线时间
96 小时
最后登录
2019-2-21
发表于 2019-2-8 23:26:19 | 显示全部楼层

感谢楼主的无私分享!要想中国高清论坛好 就靠你我他
回复 支持 反对

使用道具 举报

人气偶像

高清币
282
金钱
773
鲜花
0
在线时间
87 小时
最后登录
2019-2-19
发表于 2019-2-8 23:31:09 | 显示全部楼层
楼主太厉害了!楼主,电影应该很好看我觉得
中国高清论坛
真是个好地方!

回复 支持 反对

使用道具 举报

金鸡奖主角

高清币
398
金钱
4663
鲜花
0
在线时间
1591 小时
最后登录
2019-2-15
发表于 2019-2-8 23:44:56 | 显示全部楼层
楼主太厉害了!
回复 支持 反对

使用道具 举报

永恒神话

高清币
8251
金钱
29871
鲜花
10
在线时间
1885 小时
最后登录
2019-2-22
发表于 2019-2-9 01:28:24 | 显示全部楼层
感谢分享精彩好电影!!!
回复 支持 反对

使用道具 举报

超级明星

高清币
2710
金钱
6763
鲜花
0
在线时间
610 小时
最后登录
2019-2-22
发表于 2019-2-9 07:26:10 | 显示全部楼层

这东西我收了!谢谢楼主!中国高清论坛真好!
回复 支持 反对

使用道具 举报

永恒神话

高清币
8843
金钱
13255
鲜花
0
在线时间
765 小时
最后登录
2019-2-22
发表于 2019-2-9 08:49:37 | 显示全部楼层
感谢楼主分享精彩电影!
回复 支持 反对

使用道具 举报

懒得打字嘛,点击右侧快捷回复 【右侧内容,后台自定义】
您需要登录后才可以回帖 登录 | 立即注册

本版积分规则

QQ|手机版|小黑屋|中国高清论坛 ( 黔ICP备16007815号-1 )

GMT+8, 2019-2-22 10:50 , Processed in 0.105617 second(s), 29 queries .

Powered by Discuz! X3.4

© 2001-2017 Comsenz Inc.

快速回复 返回顶部 返回列表