请选择 进入手机版 | 继续访问电脑版

中国高清论坛

 找回密码
 立即注册
搜索
查看: 205|回复: 30

[惊悚片] 当天使沉睡When.Angels.Sleep.2018.720p.BluRay.x264-BiPOLAR 3.28GB

[复制链接]

龙行天下

高清币
27320
金钱
5217
鲜花
20
在线时间
1222 小时
最后登录
2019-2-22
发表于 2019-2-8 23:18:48 | 显示全部楼层 |阅读模式
poster_opt.jpg
导演: Gonzalo Bendala
编剧: Gonzalo Bendala
主演: Julián Villagrán / Ester Expósito / Marian álvarez / Sira Alonso / Asia Ortega / Daniel Jumillas / Christian Mulas
类型: 剧情 / 惊悚
制片国家/地区: 西班牙
语言: 西班牙语
上映日期: 2018-09-07(西班牙)
片长: 91分钟
又名: When the Angels Sleep
IMDb链接: tt3732280

当天使沉睡的剧情简介 · · · · · ·  NetFlix新上架西班牙惊悚片,讲述了一名公司CEO意外遭遇车祸,因而度过了人生中最糟糕的一个夜晚....

Video
ID : 1
Format : AVC
Format/Info : Advanced Video Codec
Format profile : High@L4.1
Format settings : CABAC / 5 Ref Frames
Format settings, CABAC : Yes
Format settings, ReFrames : 5 frames
Codec ID : V_MPEG4/ISO/AVC
Duration : 1 h 35 min
Bit rate : 4 148 kb/s
Width : 1 280 pixels
Height : 536 pixels
Display aspect ratio : 2.40:1
Frame rate mode : Constant
Frame rate : 24.000 FPS
Color space : YUV
Chroma subsampling : 4:2:0
Bit depth : 8 bits
Scan type : Progressive
Bits/(Pixel*Frame) : 0.252
Stream size : 2.76 GiB (84%)
Writing library : x264 core 157 r2935 545de2f
Encoding settings : cabac=1 / ref=5 / deblock=1:-3:-3 / analyse=0x3:0x133 / me=umh / subme=9 / psy=1 / psy_rd=1.00:0.00 / mixed_ref=1 / me_range=16 / chroma_me=1 / trellis=2 / 8x8dct=1 / cqm=0 / deadzone=21,11 / fast_pskip=0 / chroma_qp_offset=-2 / threads=12 / lookahead_threads=1 / sliced_threads=0 / nr=0 / decimate=1 / interlaced=0 / bluray_compat=0 / constrained_intra=0 / bframes=3 / b_pyramid=2 / b_adapt=1 / b_bias=0 / direct=3 / weightb=1 / open_gop=0 / weightp=2 / keyint=240 / keyint_min=24 / scenecut=40 / intra_refresh=0 / rc_lookahead=50 / rc=2pass / mbtree=1 / bitrate=4148 / ratetol=1.0 / qcomp=0.60 / qpmin=0 / qpmax=69 / qpstep=4 / cplxblur=20.0 / qblur=0.5 / ip_ratio=1.40 / aq=1:1.00
Language : English
Default : Yes
Forced : No

Audio
ID : 2
Format : DTS
Format/Info : Digital Theater Systems
Codec ID : A_DTS
Duration : 1 h 35 min
Bit rate mode : Constant
Bit rate : 768 kb/s
Channel(s) : 6 channels
Channel layout : C L R Ls Rs LFE
Sampling rate : 48.0 kHz
Frame rate : 93.750 FPS (512 SPF)
Bit depth : 24 bits
Compression mode : Lossy
Stream size : 524 MiB (16%)
Language : Spanish
Default : Yes
Forced : No

Text
ID : 3
Format : UTF-8
Codec ID : S_TEXT/UTF8
Codec ID/Info : UTF-8 Plain Text
Duration : 1 h 34 min
Bit rate : 33 b/s
Count of elements : 770
Stream size : 23.1 KiB (0%)
Title : English
Language : English
Default : Yes
Forced : Yes

Menu
00:00:00.000 : en:00:00:00.000
00:14:23.042 : en:00:14:23.042
00:23:45.000 : en:00:23:45.000
00:39:55.583 : en:00:39:55.583
00:55:52.417 : en:00:55:52.417
01:09:50.167 : en:01:09:50.167
01:17:22.667 : en:01:17:22.667
01:28:09.500 : en:01:28:09.500

57543414466153701374_thumb.jpg
When.Angels.Sleep.2018.720p.BluRay.x264-BiPOLAR.torrent (33.64 KB, 下载次数: 8)
回复

使用道具 举报

人气偶像

高清币
331
金钱
1257
鲜花
0
在线时间
96 小时
最后登录
2019-2-21
发表于 2019-2-8 23:24:41 | 显示全部楼层

楼主,大恩不言谢了!中国高清论坛是最棒的!
回复 支持 反对

使用道具 举报

知名艺人

高清币
70
金钱
349
鲜花
0
在线时间
64 小时
最后登录
2019-2-20
发表于 2019-2-8 23:31:34 | 显示全部楼层
楼主发贴辛苦了,谢谢楼主分享!我觉得中国高清论坛是注册对了!
回复 支持 反对

使用道具 举报

金鸡奖主角

高清币
398
金钱
4663
鲜花
0
在线时间
1591 小时
最后登录
2019-2-15
发表于 2019-2-8 23:46:29 | 显示全部楼层
楼主太厉害了!
回复 支持 反对

使用道具 举报

金鸡奖主角

高清币
451
金钱
3958
鲜花
0
在线时间
368 小时
最后登录
2019-2-22
发表于 2019-2-8 23:51:44 | 显示全部楼层

楼主太厉害了!楼主,电影应该很好看我觉得中国高清论坛真是个好地方!
回复 支持 反对

使用道具 举报

好莱坞明星

高清币
1447
金钱
6586
鲜花
0
在线时间
251 小时
最后登录
2019-2-22
发表于 2019-2-9 00:13:46 | 显示全部楼层

楼主太厉害了!楼主,电影应该很好看我觉得中国高清论坛真是个好地方!
回复 支持 反对

使用道具 举报

永恒神话

高清币
8251
金钱
29871
鲜花
10
在线时间
1885 小时
最后登录
2019-2-22
发表于 2019-2-9 01:21:31 | 显示全部楼层
感谢分享精彩好电影!!!
回复 支持 反对

使用道具 举报

超级明星

高清币
2710
金钱
6763
鲜花
0
在线时间
610 小时
最后登录
2019-2-22
发表于 2019-2-9 07:26:49 | 显示全部楼层

感谢楼主的无私分享!要想中国高清论坛好 就靠你我他
回复 支持 反对

使用道具 举报

影坛巨星

高清币
1429
金钱
8549
鲜花
0
在线时间
1054 小时
最后登录
2019-2-21
发表于 2019-2-9 09:20:56 | 显示全部楼层
楼主发贴辛苦了,谢谢楼主分享!我觉得中国高清论坛是注册对了!
回复 支持 反对

使用道具 举报

天王巨星

高清币
135
金钱
2295
鲜花
0
在线时间
260 小时
最后登录
2019-2-16
发表于 2019-2-9 09:41:28 | 显示全部楼层
楼主发贴辛苦了,谢谢楼主分享!我觉得中国高清论坛是注册对了!
回复 支持 反对

使用道具 举报

懒得打字嘛,点击右侧快捷回复 【右侧内容,后台自定义】
您需要登录后才可以回帖 登录 | 立即注册

本版积分规则

QQ|手机版|小黑屋|中国高清论坛 ( 黔ICP备16007815号-1 )

GMT+8, 2019-2-22 10:44 , Processed in 0.110103 second(s), 29 queries .

Powered by Discuz! X3.4

© 2001-2017 Comsenz Inc.

快速回复 返回顶部 返回列表