请选择 进入手机版 | 继续访问电脑版

中国高清论坛

 找回密码
 立即注册
搜索
查看: 179|回复: 27

[恐怖片] 圣阿加莎St.Agatha.2018.720p.AMZN.WEBRip.DDP5.1.x264-NTG 2.63GB

[复制链接]

龙行天下

高清币
27308
金钱
5217
鲜花
20
在线时间
1222 小时
最后登录
2019-2-22
发表于 2019-2-8 23:28:24 | 显示全部楼层 |阅读模式
poster_opt.jpg
导演: 达伦·林恩·鲍斯曼
编剧: Andy Demetrio / Shaun Fletcher / Sara Sometti Michaels / 克林特·西尔斯
主演: Sabrina Kern / 卡罗琳·赫尼塞 / 科特妮·哈芙森 / 塞思·迈克尔斯 / 崔恩·米勒 / 琳赛·塞姆 / Shaun Fletcher / Maximus Murrah / 汉娜·费尔曼 / Wanda Morganstern / Justin Miles/ 玛丽恩·盖约特 / Geoffrey Gould / Myles Cranford / Candy Rachor / John Penick / Marilyn Light / Marsha Fee Berger / Joe Pascolla / Rachael Gavrielli / 约翰·阿彻尔·朗格伦
类型: 恐怖
制片国家/地区: 美国
语言: 英语
上映日期: 2018-04-20(The Overlook Film Festival)
片长: 90分钟
又名: 摄魂修女院(台)
IMDb链接: tt6182078
圣阿加莎的剧情简介 · · · · · ·  1950年代的乔治亚州小镇裡,一位名叫阿嘉莎的怀孕罪犯前往一间修女院寻求庇护,她本以为这裡会是个适合安胎产子的地方,却没想到这间修女院背后隐藏著极为病态扭曲的黑暗祕密……

Video
ID : 1
Format : AVC
Format/Info : Advanced Video Codec
Format profile : High@L3.1
Format settings : CABAC / 4 Ref Frames
Format settings, CABAC : Yes
Format settings, ReFrames : 4 frames
Codec ID : V_MPEG4/ISO/AVC
Duration : 1 h 43 min
Bit rate mode : Constant
Bit rate : 3 015 kb/s
Nominal bit rate : 6 000 kb/s
Width : 1 248 pixels
Height : 520 pixels
Display aspect ratio : 2.40:1
Frame rate mode : Constant
Frame rate : 23.976 (24000/1001) FPS
Color space : YUV
Chroma subsampling : 4:2:0
Bit depth : 8 bits
Scan type : Progressive
Bits/(Pixel*Frame) : 0.194
Stream size : 2.17 GiB (82%)
Default : Yes
Forced : No
Color range : Limited
Color primaries : BT.709
Transfer characteristics : BT.709
Matrix coefficients : BT.709

Audio
ID : 2
Format : E-AC-3
Format/Info : Enhanced AC-3
Commercial name : Dolby Digital Plus
Codec ID : A_EAC3
Duration : 1 h 43 min
Bit rate mode : Constant
Bit rate : 640 kb/s
Channel(s) : 6 channels
Channel layout : L R C LFE Ls Rs
Sampling rate : 48.0 kHz
Frame rate : 31.250 FPS (1536 SPF)
Compression mode : Lossy
Stream size : 472 MiB (18%)
Language : English
Service kind : Complete Main
Default : Yes
Forced : No

Text
ID : 3
Format : UTF-8
Codec ID : S_TEXT/UTF8
Codec ID/Info : UTF-8 Plain Text
Duration : 1 h 42 min
Bit rate : 45 b/s
Count of elements : 1390
Stream size : 34.2 KiB (0%)
Title : SDH
Language : English
Default : No
Forced : No

24991206246330529878_thumb.png 38162234466499350104_thumb.png 59732563304578869088_thumb.png
游客,如果您要查看本帖隐藏内容请回复

回复

使用道具 举报

知名艺人

高清币
70
金钱
349
鲜花
0
在线时间
64 小时
最后登录
2019-2-20
发表于 2019-2-8 23:32:04 | 显示全部楼层
楼主发贴辛苦了,谢谢楼主分享!我觉得中国高清论坛是注册对了!
回复 支持 反对

使用道具 举报

人气偶像

高清币
1
金钱
1729
鲜花
0
在线时间
281 小时
最后登录
2019-2-22
发表于 2019-2-8 23:47:37 | 显示全部楼层
的点点滴滴多多多多多多多
回复 支持 反对

使用道具 举报

好莱坞明星

高清币
1447
金钱
6586
鲜花
0
在线时间
251 小时
最后登录
2019-2-22
发表于 2019-2-9 00:11:09 | 显示全部楼层

楼主太厉害了!楼主,电影应该很好看我觉得中国高清论坛真是个好地方!
回复 支持 反对

使用道具 举报

人气偶像

高清币
2
金钱
1253
鲜花
0
在线时间
409 小时
最后登录
2019-2-21
发表于 2019-2-9 00:32:40 | 显示全部楼层
楼主发贴辛苦了,谢谢楼主分享!我觉得中国高清论坛是注册对了!
回复 支持 反对

使用道具 举报

天王巨星

高清币
138
金钱
2782
鲜花
0
在线时间
609 小时
最后登录
2019-2-21
发表于 2019-2-9 00:47:31 | 显示全部楼层
楼主发贴辛苦了,谢谢楼主分享!我觉得中国高清论坛是注册对了!
回复 支持 反对

使用道具 举报

永恒神话

高清币
8248
金钱
29868
鲜花
10
在线时间
1885 小时
最后登录
2019-2-22
发表于 2019-2-9 01:16:00 | 显示全部楼层
感谢分享精彩好电影!!!
回复 支持 反对

使用道具 举报

天王巨星

高清币
242
金钱
1604
鲜花
0
在线时间
156 小时
最后登录
2019-2-21
发表于 2019-2-9 01:16:45 | 显示全部楼层
谢谢楼主分享
回复 支持 反对

使用道具 举报

好莱坞明星

高清币
313
金钱
8537
鲜花
0
在线时间
1759 小时
最后登录
2019-2-22
发表于 2019-2-9 08:14:58 | 显示全部楼层

我看不错噢 谢谢楼主!中国高清论坛越来越好!
回复 支持 反对

使用道具 举报

金鸡奖主角

高清币
789
金钱
3754
鲜花
0
在线时间
359 小时
最后登录
2019-2-22
发表于 2019-2-9 09:01:50 | 显示全部楼层
楼主发贴辛苦了,谢谢楼主分享!我觉得中国高清论坛是注册对了!
回复 支持 反对

使用道具 举报

懒得打字嘛,点击右侧快捷回复 【右侧内容,后台自定义】
您需要登录后才可以回帖 登录 | 立即注册

本版积分规则

QQ|手机版|小黑屋|中国高清论坛 ( 黔ICP备16007815号-1 )

GMT+8, 2019-2-22 09:51 , Processed in 0.101024 second(s), 29 queries .

Powered by Discuz! X3.4

© 2001-2017 Comsenz Inc.

快速回复 返回顶部 返回列表