请选择 进入手机版 | 继续访问电脑版

中国高清论坛

 找回密码
 立即注册
搜索
查看: 119|回复: 16

[恐怖片] 遗愿 The Final Wish.2018.720p.WEB-DL.XviD.AC3-FGT 3.25GB

[复制链接]

龙行天下

高清币
26424
金钱
5147
鲜花
20
在线时间
1203 小时
最后登录
2019-2-13
发表于 2019-2-8 23:41:44 | 显示全部楼层 |阅读模式
poster_opt.jpg
导演: 蒂莫西·伍德沃
编剧: Jeffrey Reddick / William Halfon / Jonathan Doyle
主演: 林·沙烨 / 迈克·韦尔奇 / 梅丽莎·博洛纳 / 史宾塞·洛克/ 托尼·托德
类型: 恐怖
制片国家/地区: 美国
语言: 英语
上映日期: 2018-10-17(美国)
片长: 95分钟
IMDb链接: tt9109306

遗愿的剧情简介 · · · · · ·  After the death of his father, Aaron returns home to help his grief-stricken mother and to confront his past. Going through his dad's belongings, he comes across a mysterious item that is more than it seems.

Video
ID : 0
Format : MPEG-4 Visual
Format profile : Simple@L5
Format settings, BVOP : No
Format settings, QPel : No
Format settings, GMC : No warppoints
Format settings, Matrix : Default (H.263)
Codec ID : XVID
Codec ID/Hint : XviD
Duration : 1 h 35 min
Bit rate : 4 464 kb/s
Width : 1 280 pixels
Height : 534 pixels
Display aspect ratio : 2.40:1
Frame rate : 23.976 (24000/1001) FPS
Color space : YUV
Chroma subsampling : 4:2:0
Bit depth : 8 bits
Scan type : Progressive
Compression mode : Lossy
Bits/(Pixel*Frame) : 0.272
Stream size : 2.99 GiB (92%)
Writing library : Lavc58.1.100

Audio
ID : 1
Format : AC-3
Format/Info : Audio Coding 3
Commercial name : Dolby Digital
Codec ID : 2000
Duration : 1 h 35 min
Bit rate mode : Constant
Bit rate : 384 kb/s
Channel(s) : 6 channels
Channel layout : L R C LFE Ls Rs
Sampling rate : 48.0 kHz
Frame rate : 31.250 FPS (1536 SPF)
Bit depth : 16 bits
Compression mode : Lossy
Stream size : 263 MiB (8%)
Alignment : Aligned on interleaves
Interleave, duration : 42 ms (1.00 video frame)
Interleave, preload duration : 512 ms
Service kind : Complete Main

23010502281276904349_thumb.png 32438052538317855941_thumb.png
游客,如果您要查看本帖隐藏内容请回复

回复

使用道具 举报

好莱坞明星

高清币
1365
金钱
6356
鲜花
0
在线时间
241 小时
最后登录
2019-2-16
发表于 7 天前 | 显示全部楼层
楼主发贴辛苦了,谢谢楼主分享!我觉得中国高清论坛是注册对了!
回复 支持 反对

使用道具 举报

人气偶像

高清币
3
金钱
1244
鲜花
0
在线时间
407 小时
最后登录
2019-2-14
发表于 7 天前 | 显示全部楼层

这个帖子不回对不起自己!我想我是一天也不能离开中国高清论坛
回复 支持 反对

使用道具 举报

天王巨星

高清币
138
金钱
2776
鲜花
0
在线时间
607 小时
最后登录
2019-2-15
发表于 7 天前 | 显示全部楼层
楼主发贴辛苦了,谢谢楼主分享!我觉得中国高清论坛是注册对了!
回复 支持 反对

使用道具 举报

永恒神话

高清币
42987
金钱
76958
鲜花
0
在线时间
1463 小时
最后登录
2019-2-15
发表于 7 天前 | 显示全部楼层

我看不错噢 谢谢楼主!中国高清论坛越来越好!
回复 支持 反对

使用道具 举报

永恒神话

高清币
42987
金钱
76958
鲜花
0
在线时间
1463 小时
最后登录
2019-2-15
发表于 7 天前 | 显示全部楼层

这东西我收了!谢谢楼主!中国高清论坛真好!
回复 支持 反对

使用道具 举报

永恒神话

高清币
8137
金钱
29648
鲜花
10
在线时间
1875 小时
最后登录
2019-2-16
发表于 7 天前 | 显示全部楼层
感谢分享精彩好电影!!!
回复 支持 反对

使用道具 举报

影坛巨星

高清币
1419
金钱
8497
鲜花
0
在线时间
1049 小时
最后登录
2019-2-16
发表于 7 天前 | 显示全部楼层
楼主发贴辛苦了,谢谢楼主分享!我觉得中国高清论坛是注册对了!
回复 支持 反对

使用道具 举报

人气偶像

高清币
150
金钱
648
鲜花
0
在线时间
173 小时
最后登录
2019-2-16
发表于 7 天前 | 显示全部楼层
源尽情下载›『720P高清电影下载』›遗愿 The Final Wish.2018.720p. ...›参与/回复主题

RE: 遗愿 The Final Wish.2018.720p.WEB-DL.XviD.AC3-FGT 3.25GB





回复 支持 反对

使用道具 举报

天王巨星

高清币
361
金钱
2594
鲜花
0
在线时间
298 小时
最后登录
2019-2-16
发表于 7 天前 | 显示全部楼层
论坛不能没有像楼主这样的人才啊!我会一直支持中国高清论坛。
回复 支持 反对

使用道具 举报

懒得打字嘛,点击右侧快捷回复 【右侧内容,后台自定义】
您需要登录后才可以回帖 登录 | 立即注册

本版积分规则

QQ|手机版|小黑屋|中国高清论坛 ( 黔ICP备16007815号-1 )

GMT+8, 2019-2-16 13:34 , Processed in 0.111618 second(s), 29 queries .

Powered by Discuz! X3.4

© 2001-2017 Comsenz Inc.

快速回复 返回顶部 返回列表