请选择 进入手机版 | 继续访问电脑版

中国高清论坛

 找回密码
 立即注册
搜索
查看: 291|回复: 32

[恐怖片] 地面之洞 The Hole in the Ground.2019.720p.WEB-DL.XviD.AC3-FGT 2.64GB

[复制链接]

龙行天下

高清币
27321
金钱
5217
鲜花
20
在线时间
1222 小时
最后登录
2019-2-22
发表于 2019-2-8 23:51:18 | 显示全部楼层 |阅读模式
poster_opt.jpg
导演: Lee Cronin
编剧: Lee Cronin / Stephen Shields
主演: 莎娜·凯斯雷克 / 詹姆斯·卡沙莫 / 卡蒂·奥廷宁 / James Quinn Markey / 西蒙妮·柯比 / Steve Wall
类型: 恐怖
制片国家/地区: 爱尔兰 Ireland / 芬兰 Finland
语言: 英语
上映日期: 2019-01-25(圣丹斯电影节)
片长: 90分钟(圣丹斯电影节)
又名: 婴魂不散
IMDb链接: tt6198946

地面之洞的剧情简介 · · · · · ·  Trying to escape her broken past, Sarah O’Neill is building a new life on the fringes of a backwood rural town with her young son Chris.A terrifying encounter with a mysterious neighbour shatters her fragile security, throwing Sarah into a spiralling nightmare of paranoia and mistrust, as she tries to uncover if the disturbing changes in her little boy are connected to an omino...

Video
ID : 0
Format : MPEG-4 Visual
Format profile : Simple@L5
Format settings, BVOP : No
Format settings, QPel : No
Format settings, GMC : No warppoints
Format settings, Matrix : Default (H.263)
Codec ID : XVID
Codec ID/Hint : XviD
Duration : 1 h 30 min
Bit rate : 3 787 kb/s
Width : 1 280 pixels
Height : 534 pixels
Display aspect ratio : 2.40:1
Frame rate : 23.976 (24000/1001) FPS
Color space : YUV
Chroma subsampling : 4:2:0
Bit depth : 8 bits
Scan type : Progressive
Compression mode : Lossy
Bits/(Pixel*Frame) : 0.231
Stream size : 2.39 GiB (91%)
Writing library : Lavc58.1.100

Audio
ID : 1
Format : AC-3
Format/Info : Audio Coding 3
Commercial name : Dolby Digital
Codec ID : 2000
Duration : 1 h 30 min
Bit rate mode : Constant
Bit rate : 384 kb/s
Channel(s) : 6 channels
Channel layout : L R C LFE Ls Rs
Sampling rate : 48.0 kHz
Frame rate : 31.250 FPS (1536 SPF)
Bit depth : 16 bits
Compression mode : Lossy
Stream size : 249 MiB (9%)
Alignment : Aligned on interleaves
Interleave, duration : 42 ms (1.00 video frame)
Interleave, preload duration : 512 ms
Service kind : Complete Main

09604829789260919882_thumb.png 67752654414268779962_thumb.png 96045017438492449644_thumb.png
游客,如果您要查看本帖隐藏内容请回复

回复

使用道具 举报

好莱坞明星

高清币
1447
金钱
6586
鲜花
0
在线时间
251 小时
最后登录
2019-2-22
发表于 2019-2-9 00:10:36 | 显示全部楼层
楼主发贴辛苦了,谢谢楼主分享!我觉得中国高清论坛是注册对了!
回复 支持 反对

使用道具 举报

金鸡奖主角

高清币
1521
金钱
3370
鲜花
0
在线时间
410 小时
最后登录
2019-2-22
发表于 2019-2-9 00:16:18 | 显示全部楼层

这东西我收了!谢谢楼主!中国高清论坛真好!
回复 支持 反对

使用道具 举报

人气偶像

高清币
293
金钱
904
鲜花
0
在线时间
331 小时
最后登录
2019-2-22
发表于 2019-2-9 00:21:43 | 显示全部楼层

我看不错噢 谢谢楼主!中国高清论坛越来越好!
回复 支持 反对

使用道具 举报

人气偶像

高清币
2
金钱
1253
鲜花
0
在线时间
409 小时
最后登录
2019-2-21
发表于 2019-2-9 00:31:17 | 显示全部楼层

这东西我收了!谢谢楼主!中国高清论坛真好!
回复 支持 反对

使用道具 举报

天王巨星

高清币
138
金钱
2782
鲜花
0
在线时间
609 小时
最后登录
2019-2-21
发表于 2019-2-9 00:46:51 | 显示全部楼层
楼主发贴辛苦了,谢谢楼主分享!我觉得中国高清论坛是注册对了!
回复 支持 反对

使用道具 举报

金鸡奖主角

高清币
13
金钱
4162
鲜花
0
在线时间
701 小时
最后登录
2019-2-22
发表于 2019-2-9 01:10:06 | 显示全部楼层
楼主发贴辛苦了,谢谢楼主分享!我觉得中国高清论坛是注册对了!
回复 支持 反对

使用道具 举报

永恒神话

高清币
8251
金钱
29871
鲜花
10
在线时间
1885 小时
最后登录
2019-2-22
发表于 2019-2-9 01:17:40 | 显示全部楼层
感谢分享精彩好电影!!!
回复 支持 反对

使用道具 举报

金鸡奖主角

高清币
789
金钱
3754
鲜花
0
在线时间
359 小时
最后登录
2019-2-22
发表于 2019-2-9 09:04:24 | 显示全部楼层

这东西我收了!谢谢楼主!中国高清论坛真好!
回复 支持 反对

使用道具 举报

人气偶像

高清币
136
金钱
670
鲜花
0
在线时间
179 小时
最后登录
2019-2-21
发表于 2019-2-9 09:07:18 | 显示全部楼层


『720P高清电影下载』›地面之洞 The Hole in the Groun ...›参与/回复主题

RE: 地面之洞 The Hole in the Ground.2019.720p.WEB-DL.XviD.AC3-FGT 2.64G





回复 支持 反对

使用道具 举报

懒得打字嘛,点击右侧快捷回复 【右侧内容,后台自定义】
您需要登录后才可以回帖 登录 | 立即注册

本版积分规则

QQ|手机版|小黑屋|中国高清论坛 ( 黔ICP备16007815号-1 )

GMT+8, 2019-2-22 10:51 , Processed in 0.119878 second(s), 29 queries .

Powered by Discuz! X3.4

© 2001-2017 Comsenz Inc.

快速回复 返回顶部 返回列表