请选择 进入手机版 | 继续访问电脑版

中国高清论坛

 找回密码
 立即注册
搜索
查看: 138|回复: 29

[综艺] 《春满东方·2019东方卫视春节联欢晚会》.1080i.DRAGON.HDTV.H.264.MPEG-FLTTH 12.7G

[复制链接]

高清发布组

高清币
3312
金钱
3662
鲜花
5
在线时间
892 小时
最后登录
2019-2-15
发表于 2019-2-9 16:19:12 | 显示全部楼层 |阅读模式
SS_00007.jpg SS_00008.jpg SS_00009.jpg SS_00010.jpg SS_00011.jpg SS_00012.jpg
  1. General
  2. ID                                       : 1 (0x1)
  3. Complete name                            : 春满东方.20190205.1080i.DRAGON.HDTV.H.264.MPEG-FLTTH.ts
  4. Format                                   : MPEG-TS
  5. File size                                : 12.7 GiB
  6. Duration                                 : 3 h 53 min
  7. Overall bit rate mode                    : Variable
  8. Overall bit rate                         : 7 806 kb/s

  9. Video
  10. ID                                       : 256 (0x100)
  11. Menu ID                                  : 1 (0x1)
  12. Format                                   : AVC
  13. Format/Info                              : Advanced Video Codec
  14. Format profile                           : High@L4.1
  15. Format settings                          : CABAC / 4 Ref Frames
  16. Format settings, CABAC                   : Yes
  17. Format settings, RefFrames               : 4 frames
  18. Format settings, GOP                     : M=4, N=32
  19. Codec ID                                 : 27
  20. Duration                                 : 3 h 53 min
  21. Bit rate                                 : 7 227 kb/s
  22. Width                                    : 1 920 pixels
  23. Height                                   : 1 080 pixels
  24. Display aspect ratio                     : 16:9
  25. Frame rate                               : 25.000 FPS
  26. Color space                              : YUV
  27. Chroma subsampling                       : 4:2:0
  28. Bit depth                                : 8 bits
  29. Scan type                                : Interlaced
  30. Scan type, store method                  : Separated fields
  31. Scan order                               : Top Field First
  32. Bits/(Pixel*Frame)                       : 0.139
  33. Stream size                              : 11.8 GiB (93%)
  34. Color range                              : Limited
  35. Color primaries                          : BT.709
  36. Transfer characteristics                 : BT.709
  37. Matrix coefficients                      : BT.709

  38. Audio
  39. ID                                       : 257 (0x101)
  40. Menu ID                                  : 1 (0x1)
  41. Format                                   : MPEG Audio
  42. Format version                           : Version 1
  43. Format profile                           : Layer 2
  44. Codec ID                                 : 3
  45. Duration                                 : 3 h 53 min
  46. Bit rate mode                            : Constant
  47. Bit rate                                 : 192 kb/s
  48. Channel(s)                               : 1 channel
  49. Sampling rate                            : 48.0 kHz
  50. Frame rate                               : 41.667 FPS (1152 SPF)
  51. Compression mode                         : Lossy
  52. Delay relative to video                  : -970 ms
  53. Stream size                              : 321 MiB (2%)

复制代码
节目简介:
    爆竹声声里,花灯万盏明,即将到来的春节也吹响了卫视春晚集结号,一直以“王牌春晚”打动人心的东方卫视再次扬帆起航。《春满东方·东方卫视春节晚会 2019》2月5日为观众献上新春第一份贺礼。宝藏开启,寄情山水,四海一家。金猪辞旧岁,摩登贺新年!国风少年、天籁之音、重磅巨星、实力笑匠齐聚一堂。


下载地址:
https://pan.baidu.com/s/1NGyKPpt3ICrgr8OWo3mPAg
回复

使用道具 举报

影坛巨星

高清币
3987
金钱
5942
鲜花
0
在线时间
311 小时
最后登录
2019-2-16
发表于 6 天前 | 显示全部楼层

我看不错噢 谢谢楼主!中国高清论坛越来越好!
回复 支持 反对

使用道具 举报

人气偶像

高清币
53
金钱
1113
鲜花
0
在线时间
199 小时
最后登录
2019-2-15
发表于 6 天前 | 显示全部楼层

楼主太厉害了!楼主,电影应该很好看我觉得中国高清论坛真是个好地方!
回复 支持 反对

使用道具 举报

知名艺人

高清币
31
金钱
265
鲜花
0
在线时间
31 小时
最后登录
2019-2-17
发表于 6 天前 | 显示全部楼层
非常感谢提供资源
回复 支持 反对

使用道具 举报

超级明星

高清币
24
金钱
8462
鲜花
0
在线时间
2434 小时
最后登录
2019-2-17
发表于 6 天前 | 显示全部楼层
楼主发贴辛苦了,谢谢楼主分享!我觉得中国高清论坛是注册对了!
回复 支持 反对

使用道具 举报

人气偶像

高清币
2
金钱
1093
鲜花
0
在线时间
174 小时
最后登录
2019-2-16
发表于 6 天前 | 显示全部楼层

楼主太厉害了!楼主,电影应该很好看我觉得中国高清论坛真是个好地方!
回复 支持 反对

使用道具 举报

人气偶像

高清币
7
金钱
812
鲜花
0
在线时间
219 小时
最后登录
2019-2-15
发表于 6 天前 | 显示全部楼层
楼主太厉害了!楼主,电影应该很好看我觉得中国高清论坛真是个好地方!
回复 支持 反对

使用道具 举报

天王巨星

高清币
43
金钱
2643
鲜花
0
在线时间
676 小时
最后登录
2019-2-16
发表于 5 天前 | 显示全部楼层
楼主发贴辛苦了,谢谢楼主分享!
回复 支持 反对

使用道具 举报

金鸡奖主角

高清币
62
金钱
6109
鲜花
0
在线时间
1343 小时
最后登录
2019-2-17
发表于 5 天前 | 显示全部楼层
楼主发贴辛苦了,谢谢楼主分享!我觉得中国高清论坛是注册对了!
回复 支持 反对

使用道具 举报

影坛巨星

高清币
4113
金钱
5332
鲜花
0
在线时间
662 小时
最后登录
2019-2-17
发表于 5 天前 | 显示全部楼层

这个帖子不回对不起自己!我想我是一天也不能离开中国高清论坛
回复 支持 反对

使用道具 举报

懒得打字嘛,点击右侧快捷回复 【右侧内容,后台自定义】
您需要登录后才可以回帖 登录 | 立即注册

本版积分规则

QQ|手机版|小黑屋|中国高清论坛 ( 黔ICP备16007815号-1 )

GMT+8, 2019-2-17 22:04 , Processed in 0.090474 second(s), 29 queries .

Powered by Discuz! X3.4

© 2001-2017 Comsenz Inc.

快速回复 返回顶部 返回列表