请选择 进入手机版 | 继续访问电脑版

中国高清论坛

 找回密码
 立即注册
搜索
查看: 750|回复: 135

[动作片] 灵魂猎人 Soul.Hunters.2019.720p.AMZN.WEBRip.DDP5.1.x264-NTG 1.64GB

  [复制链接]

龙行天下

高清币
27308
金钱
5217
鲜花
20
在线时间
1222 小时
最后登录
2019-2-22
发表于 2019-2-9 22:04:10 | 显示全部楼层 |阅读模式
769d7a2f16935cadfc09500c7743ef9d.jpg
◎译  名 灵魂猎人
◎片  名 Soul Hunters
◎年  代 2019
◎产  地 美国
◎类  别 动作 / 惊悚
◎语  言 英语
◎IMDb评分 N/A
◎片  长 1 h 41 min
◎导  演 Arturo Acevedo-Smith
◎编  剧 Arturo Acevedo-Smith
◎主  演 Zach Scheerer        ...        Marcus
      Franziska Schissler        ...        Kristen
      David Josh Lawrence        ...        Eli


◎简  介  

  A disgraced ex special forces agent turns to a demon that offers him a job as a soul hunter. Chaos ensues when a former associate goes on a killing spree with thesoul hunter as his main target.

Video
ID : 1
Format : AVC
Format/Info : Advanced Video Codec
Format profile : High@L3.1
Format settings : CABAC / 4 Ref Frames
Format settings, CABAC : Yes
Format settings, ReFrames : 4 frames
Codec ID : V_MPEG4/ISO/AVC
Duration : 1 h 41 min
Bit rate mode : Constant
Bit rate : 1 677 kb/s
Nominal bit rate : 6 000 kb/s
Width : 1 280 pixels
Height : 720 pixels
Display aspect ratio : 16:9
Frame rate mode : Constant
Frame rate : 23.976 (24000/1001) FPS
Color space : YUV
Chroma subsampling : 4:2:0
Bit depth : 8 bits
Scan type : Progressive
Bits/(Pixel*Frame) : 0.076
Stream size : 1.19 GiB (72%)
Default : Yes
Forced : No
Color range : Limited
Color primaries : BT.709
Transfer characteristics : BT.709
Matrix coefficients : BT.709

Audio
ID : 2
Format : E-AC-3
Format/Info : Enhanced AC-3
Commercial name : Dolby Digital Plus
Codec ID : A_EAC3
Duration : 1 h 41 min
Bit rate mode : Constant
Bit rate : 640 kb/s
Channel(s) : 6 channels
Channel layout : L R C LFE Ls Rs
Sampling rate : 48.0 kHz
Frame rate : 31.250 FPS (1536 SPF)
Compression mode : Lossy
Stream size : 464 MiB (28%)
Language : English
Service kind : Complete Main
Default : Yes
Forced : No

Text
ID : 3
Format : UTF-8
Codec ID : S_TEXT/UTF8
Codec ID/Info : UTF-8 Plain Text
Duration : 1 h 37 min
Bit rate : 62 b/s
Count of elements : 1550
Stream size : 44.9 KiB (0%)
Title : SDH
Language : English
Default : No
Forced : No

3cc13f3e7f42a840a76b6593e27a219f.jpg 0a19d56eecd5a3fb47d9944e7251cf85.jpg
游客,如果您要查看本帖隐藏内容请回复

回复

使用道具 举报

禁止发言

高清币
26
金钱
30
鲜花
0
在线时间
0 小时
最后登录
2019-2-10
发表于 2019-2-9 23:02:24 | 显示全部楼层
提示: 作者被禁止或删除 内容自动屏蔽
回复 支持 1 反对 0

使用道具 举报

金鸡奖主角

高清币
352
金钱
5356
鲜花
0
在线时间
721 小时
最后登录
2019-2-21
发表于 2019-2-9 23:02:21 | 显示全部楼层

既然你诚信诚意的推荐了,那我就勉为其难的看看吧!中国高清论坛不走平凡路。
回复 支持 1 反对 0

使用道具 举报

好莱坞明星

高清币
10
金钱
5931
鲜花
0
在线时间
1450 小时
最后登录
2019-2-22
发表于 2019-2-9 22:27:19 | 显示全部楼层
楼主发贴辛苦了,谢谢楼主分享
回复 支持 反对

使用道具 举报

知名艺人

高清币
4
金钱
202
鲜花
0
在线时间
19 小时
最后登录
2019-2-9
发表于 2019-2-9 22:47:46 | 显示全部楼层
楼主发帖辛苦了 多谢分享
回复 支持 反对

使用道具 举报

知名艺人

高清币
4
金钱
202
鲜花
0
在线时间
19 小时
最后登录
2019-2-9
发表于 2019-2-9 22:48:23 | 显示全部楼层
楼主发帖辛苦了 多谢分享
回复 支持 反对

使用道具 举报

影坛巨星

高清币
31
金钱
10387
鲜花
0
在线时间
2114 小时
最后登录
2019-2-21
发表于 2019-2-9 22:52:32 | 显示全部楼层

楼主太厉害了!楼主,电影应该很好看我觉得中国高清论坛真是个好地方!
回复 支持 反对

使用道具 举报

superstar

高清币
3000
金钱
8146
鲜花
0
在线时间
817 小时
最后登录
2019-2-21
发表于 2019-2-9 22:54:47 | 显示全部楼层

其实我一直觉得楼主的品味不错!呵呵!中国高清论坛太棒了!
回复 支持 反对

使用道具 举报

人气偶像

高清币
50
金钱
1069
鲜花
0
在线时间
142 小时
最后登录
2019-2-20
发表于 2019-2-9 23:22:00 | 显示全部楼层

这东西我收了!谢谢楼主!中国高清论坛真好!
回复 支持 反对

使用道具 举报

superstar

高清币
264
金钱
15131
鲜花
0
在线时间
1042 小时
最后登录
2019-2-22
发表于 2019-2-9 23:32:14 | 显示全部楼层

这东西我收了!谢谢楼主!中国高清论坛真好!
回复 支持 反对

使用道具 举报

懒得打字嘛,点击右侧快捷回复 【右侧内容,后台自定义】
您需要登录后才可以回帖 登录 | 立即注册

本版积分规则

QQ|手机版|小黑屋|中国高清论坛 ( 黔ICP备16007815号-1 )

GMT+8, 2019-2-22 09:50 , Processed in 0.097803 second(s), 30 queries .

Powered by Discuz! X3.4

© 2001-2017 Comsenz Inc.

快速回复 返回顶部 返回列表