请选择 进入手机版 | 继续访问电脑版

中国高清论坛

 找回密码
 立即注册
搜索
查看: 1240|回复: 382

[动作片] 霸主/大君主之役(港) Overlord.2018.1080p.BluRay.x264.TrueHD.7.1.Atmos-FGT

  [复制链接]

区域版主

高清币
14724
金钱
34487
鲜花
-88
在线时间
10987 小时
最后登录
2019-2-17
发表于 7 天前 | 显示全部楼层 |阅读模式


◎译  名 霸主/霸王行动/君主/大君主行动/大君主之役(港)
◎片  名 Overlord
◎年  代 2019
◎国  家 美国
◎类  别 动作/科幻/恐怖/战争
◎语  言 英语
◎IMDb评分 7.1/10 from 18,618 users
◎IMDB链接 https://www.imdb.com/title/tt4530422/
◎片  长 1 h 49 min
◎导  演 朱利叶斯·艾弗里 Julius Avery
◎主  演 约翰·艾德坡 Jovan Adepo
       怀亚特·罗素 Wyatt Russell
       马蒂尔德·奥利维耶 Mathilde Ollivier


◎简  介 

  诺曼底“霸王行动”前夕,美国伞兵深入敌人后方,执行一项对入侵的成功至关重要的任务。但当接近目标时,他们开始意识到,在这个纳粹占领的村庄里发生的事情比简单军事行动要复杂许多,他们将与超自然力量斗争,而这些是纳粹实验的一部分。
  1. Video
  2. ID : 1
  3. Format : AVC
  4. Format/Info : Advanced Video Codec
  5. Format profile : [email]High@L4.1[/email]
  6. Format settings : CABAC / 5 Ref Frames
  7. Format settings, CABAC : Yes
  8. Format settings, ReFrames : 5 frames
  9. Codec ID : V_MPEG4/ISO/AVC
  10. Duration : 1 h 49 min
  11. Bit rate : 9 717 kb/s
  12. Width : 1 920 pixels
  13. Height : 800 pixels
  14. Display aspect ratio : 2.40:1
  15. Frame rate mode : Constant
  16. Frame rate : 23.976 (24000/1001) FPS
  17. Color space : YUV
  18. Chroma subsampling : 4:2:0
  19. Bit depth : 8 bits
  20. Scan type : Progressive
  21. Bits/(Pixel*Frame) : 0.264
  22. Stream size : 7.45 GiB (64%)
  23. Title : Overlord.2018.1080p.BluRay.x264.TrueHD.7.1.Atmos-FGT
  24. Writing library : x264 core 157 r2935 545de2f
  25. Encoding settings : cabac=1 / ref=5 / deblock=1:-3:-3 / analyse=0x3:0x113 / me=umh / subme=8 / psy=1 / psy_rd=1.00:0.00 / mixed_ref=1 / me_range=16 / chroma_me=1 / trellis=1 / 8x8dct=1 / cqm=0 / deadzone=21,11 / fast_pskip=1 / chroma_qp_offset=-2 / threads=24 / lookahead_threads=4 / sliced_threads=0 / nr=0 / decimate=1 / interlaced=0 / bluray_compat=0 / constrained_intra=0 / bframes=3 / b_pyramid=2 / b_adapt=1 / b_bias=0 / direct=3 / weightb=1 / open_gop=0 / weightp=2 / keyint=250 / keyint_min=23 / scenecut=40 / intra_refresh=0 / rc_lookahead=50 / rc=2pass / mbtree=1 / bitrate=9717 / ratetol=1.0 / qcomp=0.60 / qpmin=0 / qpmax=69 / qpstep=4 / cplxblur=20.0 / qblur=0.5 / ip_ratio=1.40 / aq=1:1.00
  26. Language : English
  27. Default : Yes
  28. Forced : No

  29. Audio #1
  30. ID : 2
  31. Format : MLP FBA 16-ch
  32. Format/Info : Meridian Lossless Packing FBA with 16-channel presentation
  33. Commercial name : Dolby TrueHD with Dolby Atmos
  34. Codec ID : A_TRUEHD
  35. Duration : 1 h 49 min
  36. Bit rate mode : Variable
  37. Bit rate : 4 722 kb/s
  38. Maximum bit rate : 8 355 kb/s
  39. Channel(s) : 8 channels
  40. Channel layout : L R C LFE Ls Rs Lb Rb
  41. Sampling rate : 48.0 kHz
  42. Frame rate : 1 200.000 FPS (40 SPF)
  43. Compression mode : Lossless
  44. Stream size : 3.62 GiB (31%)
  45. Title : Overlord.2018.1080p.BluRay.x264.TrueHD.7.1.Atmos-FGT
  46. Language : English
  47. Default : Yes
  48. Forced : No
  49. Number of dynamic objects : 11
  50. Bed channel count : 1 channel
  51. Bed channel configuration : LFE

  52. Audio #2
  53. ID : 3
  54. Format : AC-3
  55. Format/Info : Audio Coding 3
  56. Commercial name : Dolby Digital
  57. Codec ID : A_AC3
  58. Duration : 1 h 49 min
  59. Bit rate mode : Constant
  60. Bit rate : 640 kb/s
  61. Channel(s) : 6 channels
  62. Channel layout : L R C LFE Ls Rs
  63. Sampling rate : 48.0 kHz
  64. Frame rate : 31.250 FPS (1536 SPF)
  65. Bit depth : 16 bits
  66. Compression mode : Lossy
  67. Stream size : 503 MiB (4%)
  68. Title : Overlord.2018.1080p.BluRay.x264.TrueHD.7.1.Atmos-FGT
  69. Language : English
  70. Service kind : Complete Main
  71. Default : No
  72. Forced : No

  73. Text #1
  74. ID : 4
  75. Format : UTF-8
  76. Codec ID : S_TEXT/UTF8
  77. Codec ID/Info : UTF-8 Plain Text
  78. Duration : 1 h 4 min
  79. Bit rate : 4 b/s
  80. Count of elements : 91
  81. Stream size : 1.99 KiB (0%)
  82. Title : English-FORCED-SRT
  83. Language : English
  84. Default : Yes
  85. Forced : Yes

  86. Text #2
  87. ID : 5
  88. Format : UTF-8
  89. Codec ID : S_TEXT/UTF8
  90. Codec ID/Info : UTF-8 Plain Text
  91. Duration : 1 h 42 min
  92. Bit rate : 36 b/s
  93. Count of elements : 1034
  94. Stream size : 27.6 KiB (0%)
  95. Title : English-SRT
  96. Language : English
  97. Default : No
  98. Forced : No

  99. Text #3
  100. ID : 6
  101. Format : UTF-8
  102. Codec ID : S_TEXT/UTF8
  103. Codec ID/Info : UTF-8 Plain Text
  104. Duration : 1 h 42 min
  105. Bit rate : 49 b/s
  106. Count of elements : 1447
  107. Stream size : 37.0 KiB (0%)
  108. Title : English-SDH-SRT
  109. Language : English
  110. Default : No
  111. Forced : No

  112. Text #4
  113. ID : 7
  114. Format : PGS
  115. Muxing mode : zlib
  116. Codec ID : S_HDMV/PGS
  117. Codec ID/Info : Picture based subtitle format used on BDs/HD-DVDs
  118. Duration : 1 h 42 min
  119. Bit rate : 9 165 b/s
  120. Count of elements : 2034
  121. Stream size : 6.70 MiB (0%)
  122. Language : English
  123. Default : No
  124. Forced : No

  125. Menu
  126. 00:00:00.000 : en:Chapter 01
  127. 00:06:31.099 : en:Chapter 02
  128. 00:13:47.493 : en:Chapter 03
  129. 00:20:31.313 : en:Chapter 04
  130. 00:26:27.795 : en:Chapter 05
  131. 00:34:08.964 : en:Chapter 06
  132. 00:41:10.593 : en:Chapter 07
  133. 00:48:41.377 : en:Chapter 08
  134. 00:55:50.889 : en:Chapter 09
  135. 01:03:21.464 : en:Chapter 10
  136. 01:10:28.599 : en:Chapter 11
  137. 01:17:21.887 : en:Chapter 12
  138. 01:25:47.601 : en:Chapter 13
  139. 01:32:19.159 : en:Chapter 14
  140. 01:38:48.464 : en:Chapter 15
  141. 01:42:39.195 : en:Chapter 16
复制代码








游客,如果您要查看本帖隐藏内容请回复



回复

使用道具 举报

金鸡奖主角

高清币
-3
金钱
3728
鲜花
0
在线时间
1268 小时
最后登录
2019-2-14
发表于 7 天前 | 显示全部楼层

楼主太厉害了!楼主,电影应该很好看我觉得中国高清论坛真是个好地方!
回复 支持 反对

使用道具 举报

超级明星

高清币
972
金钱
9425
鲜花
0
在线时间
881 小时
最后登录
2019-2-15
发表于 7 天前 | 显示全部楼层

这个帖子不回对不起自己!我想我是一天也不能离开中国高清论坛
回复 支持 反对

使用道具 举报

超级明星

高清币
1039
金钱
7352
鲜花
0
在线时间
1460 小时
最后登录
2019-2-17
发表于 7 天前 | 显示全部楼层
楼主发贴辛苦了,谢谢楼主分享!我觉得中国高清论坛是注册对了!
回复 支持 反对

使用道具 举报

人气偶像

高清币
300
金钱
916
鲜花
0
在线时间
263 小时
最后登录
2019-2-17

天使勋章

发表于 7 天前 | 显示全部楼层
感谢楼主分享。
回复 支持 反对

使用道具 举报

知名艺人

高清币
69
金钱
328
鲜花
0
在线时间
28 小时
最后登录
2019-2-17
发表于 7 天前 | 显示全部楼层
楼主发贴辛苦了,谢谢楼主分享!我觉得中国高清论坛是注册对了!
回复 支持 反对

使用道具 举报

人气偶像

高清币
13
金钱
1089
鲜花
0
在线时间
529 小时
最后登录
2019-2-17
发表于 7 天前 | 显示全部楼层
谢谢楼主分享
回复 支持 反对

使用道具 举报

天王巨星

高清币
5
金钱
3217
鲜花
0
在线时间
772 小时
最后登录
2019-2-17
发表于 7 天前 | 显示全部楼层
啊飒飒萨达色我去额为去问问
回复 支持 反对

使用道具 举报

好莱坞明星

高清币
993
金钱
6510
鲜花
0
在线时间
2558 小时
最后登录
2019-2-17
发表于 7 天前 | 显示全部楼层

楼主太厉害了!楼主,电影应该很好看我觉得中国高清论坛真是个好地方!
回复 支持 反对

使用道具 举报

天王巨星

高清币
62
金钱
3507
鲜花
0
在线时间
1419 小时
最后登录
2019-2-17
发表于 7 天前 | 显示全部楼层
大君主之役
回复 支持 反对

使用道具 举报

懒得打字嘛,点击右侧快捷回复 【右侧内容,后台自定义】
您需要登录后才可以回帖 登录 | 立即注册

本版积分规则

QQ|手机版|小黑屋|中国高清论坛 ( 黔ICP备16007815号-1 )

GMT+8, 2019-2-17 22:25 , Processed in 0.101506 second(s), 29 queries .

Powered by Discuz! X3.4

© 2001-2017 Comsenz Inc.

快速回复 返回顶部 返回列表