请选择 进入手机版 | 继续访问电脑版

中国高清论坛

 找回密码
 立即注册
搜索
查看: 315|回复: 71

[恐怖片] 在某人受伤害之前 Before Someone Gets Hurt2018.720p.BRRip.XviD.AC3-XVID 2.65GB

  [复制链接]

龙行天下

高清币
26416
金钱
5147
鲜花
20
在线时间
1203 小时
最后登录
2019-2-13
发表于 6 天前 | 显示全部楼层 |阅读模式
poster_opt.jpg
导演: Shane Barbanel
编剧: Shane Barbanel / Brian Herskowitz
主演: 迈克·韦尔奇 / 亚历桑德拉·图申 / Aaron Sauter / Patrick Woodall / Katie Henney / Julia Morrison / 威尔·罗杰斯
类型: 恐怖
制片国家/地区: 美国
语言: 英语
上映日期: 2018-07(美国)
片长: 86min
又名: Until Someone Gets Hurt
IMDb链接: tt3444206

在某人受伤害之前的剧情简介 · · · · · ·  Tim and his team are the rising stars of the ghost hunting game. One thing they all like better than a good haunt is a great prank. When the team arrives at a new investigation, they cannot figure if the occurrences are part of some elaborate master prank or if the house is actually haunted. Unfortunately, they don't find the answer until it is far too late

Video
ID : 0
Format : MPEG-4 Visual
Format profile : Simple@L5
Format settings, BVOP : No
Format settings, QPel : No
Format settings, GMC : No warppoints
Format settings, Matrix : Default (H.263)
Codec ID : XVID
Codec ID/Hint : XviD
Duration : 1 h 25 min
Bit rate : 3 785 kb/s
Width : 1 280 pixels
Height : 720 pixels
Display aspect ratio : 16:9
Frame rate : 23.976 (24000/1001) FPS
Color space : YUV
Chroma subsampling : 4:2:0
Bit depth : 8 bits
Scan type : Progressive
Compression mode : Lossy
Bits/(Pixel*Frame) : 0.171
Stream size : 2.26 GiB (85%)
Writing library : Lavc58.18.100

Audio
ID : 1
Format : AC-3
Format/Info : Audio Coding 3
Commercial name : Dolby Digital
Codec ID : 2000
Duration : 1 h 25 min
Bit rate mode : Constant
Bit rate : 640 kb/s
Channel(s) : 6 channels
Channel layout : L R C LFE Ls Rs
Sampling rate : 48.0 kHz
Frame rate : 31.250 FPS (1536 SPF)
Bit depth : 16 bits
Compression mode : Lossy
Stream size : 392 MiB (14%)
Alignment : Aligned on interleaves
Interleave, duration : 42 ms (1.00 video frame)
Interleave, preload duration : 512 ms
Service kind : Complete Main

30186299922754068619_thumb.png 64810542249039151669_thumb.png
游客,如果您要查看本帖隐藏内容请回复

回复

使用道具 举报

永恒神话

高清币
8125
金钱
29636
鲜花
10
在线时间
1875 小时
最后登录
2019-2-16
发表于 6 天前 | 显示全部楼层
感谢分享精彩好电影!!!
回复 支持 反对

使用道具 举报

天王巨星

高清币
46
金钱
2457
鲜花
0
在线时间
432 小时
最后登录
2019-2-16
发表于 6 天前 | 显示全部楼层

这个帖子不回对不起自己!我想我是一天也不能离开中国高清论坛
回复 支持 反对

使用道具 举报

知名艺人

高清币
1
金钱
312
鲜花
0
在线时间
54 小时
最后登录
2019-2-10
发表于 6 天前 | 显示全部楼层
不错不错  谢谢分享
回复 支持 反对

使用道具 举报

好莱坞明星

高清币
2067
金钱
4487
鲜花
0
在线时间
1331 小时
最后登录
2019-2-16
发表于 6 天前 | 显示全部楼层

感谢楼主的无私分享!要想中国高清论坛好 就靠你我他
回复 支持 反对

使用道具 举报

永恒神话

高清币
14952
金钱
22513
鲜花
0
在线时间
3217 小时
最后登录
2019-2-16
发表于 6 天前 | 显示全部楼层
楼主发贴辛苦了,谢谢楼主分享!我觉得中国高清论坛是注册对了!
回复 支持 反对

使用道具 举报

人气偶像

高清币
52
金钱
709
鲜花
0
在线时间
64 小时
最后登录
2019-2-15
发表于 6 天前 | 显示全部楼层
楼主发贴辛苦了,谢谢楼主分享!我觉得中国高清论坛是注册对了!
回复 支持 反对

使用道具 举报

永恒神话

高清币
11928
金钱
18786
鲜花
0
在线时间
478 小时
最后登录
2019-2-15
发表于 6 天前 | 显示全部楼层
楼主发贴辛苦了,谢谢楼主分享!我觉得中国高清论坛是注册对了!
回复 支持 反对

使用道具 举报

永恒神话

高清币
8440
金钱
10449
鲜花
0
在线时间
519 小时
最后登录
2019-2-15
发表于 6 天前 | 显示全部楼层

感谢楼主的无私分享!要想中国高清论坛好 就靠你我他
回复 支持 反对

使用道具 举报

永恒神话

高清币
8440
金钱
10449
鲜花
0
在线时间
519 小时
最后登录
2019-2-15
发表于 6 天前 | 显示全部楼层

楼主太厉害了!楼主,电影应该很好看我觉得中国高清论坛真是个好地方!
回复 支持 反对

使用道具 举报

懒得打字嘛,点击右侧快捷回复 【右侧内容,后台自定义】
您需要登录后才可以回帖 登录 | 立即注册

本版积分规则

QQ|手机版|小黑屋|中国高清论坛 ( 黔ICP备16007815号-1 )

GMT+8, 2019-2-16 13:16 , Processed in 0.108415 second(s), 29 queries .

Powered by Discuz! X3.4

© 2001-2017 Comsenz Inc.

快速回复 返回顶部 返回列表