请选择 进入手机版 | 继续访问电脑版

中国高清论坛

 找回密码
 立即注册
搜索
查看: 408|回复: 84

[恐怖片] 坏苹果 Bad Apples2018.720p.WEB-DL.DD5.1.H264-FGT 2.66GB

  [复制链接]

龙行天下

高清币
26425
金钱
5147
鲜花
20
在线时间
1203 小时
最后登录
2019-2-13
发表于 6 天前 | 显示全部楼层 |阅读模式
poster_opt.jpg
导演: Bryan Coyne
编剧: Bryan Coyne
主演: Andrea Collins / 布瑞亚·格兰特 / Alycia Lourim
类型: 恐怖
制片国家/地区: 美国
语言: 英语
上映日期: 2018-02-06(美国)
片长: 80分钟
IMDb链接: tt7091300

坏苹果的剧情简介 · · · · · ·  It’s Halloween night, and two “bad apples” decide to play some wicked tricks on the one house in a suburban cul-de-sac that is not celebrating Halloween.The pair terrorize a young couple in their home and these tricks become increasingly more sinister as the night progresses, finally ending in a Halloween the entire neighborhood will never forget…

Video
ID : 1
Format : AVC
Format/Info : Advanced Video Codec
Format profile : High@L3.1
Format settings : 2 Ref Frames
Format settings, CABAC : No
Format settings, ReFrames : 2 frames
Codec ID : V_MPEG4/ISO/AVC
Duration : 1 h 25 min
Bit rate : 4 088 kb/s
Width : 1 280 pixels
Height : 720 pixels
Display aspect ratio : 16:9
Frame rate mode : Constant
Frame rate : 23.976 FPS
Color space : YUV
Chroma subsampling : 4:2:0
Bit depth : 8 bits
Scan type : Progressive
Bits/(Pixel*Frame) : 0.185
Stream size : 2.43 GiB (91%)
Title : Bad.Apples.2018.720p.WEB-DL.DD5.1.H264-FGT
Language : English
Default : Yes
Forced : No
Color range : Limited
Color primaries : BT.709
Transfer characteristics : BT.709
Matrix coefficients : BT.709

Audio
ID : 2
Format : AC-3
Format/Info : Audio Coding 3
Codec ID : A_AC3
Duration : 1 h 25 min
Bit rate mode : Constant
Bit rate : 384 kb/s
Channel(s) : 6 channels
Channel positions : Front: L C R, Side: L R, LFE
Sampling rate : 48.0 kHz
Frame rate : 31.250 FPS (1536 SPF)
Bit depth : 16 bits
Compression mode : Lossy
Stream size : 234 MiB (9%)
Title : Bad.Apples.2018.720p.WEB-DL.DD5.1.H264-FGT
Language : English
Service kind : Complete Main
Default : Yes
Forced : No

Menu
00:00:00.000 : en:1
00:11:14.382 : en:2
00:23:37.208 : en:3
00:36:14.506 : en:4
00:46:11.895 : en:5
00:56:44.944 : en:6
01:06:09.132 : en:7
01:14:00.811 : en:8
01:24:14.424 : en:9

31369900111501681747_thumb.png 34289705218390186383_thumb.png 43433411306230233908_thumb.png 54669127290346720432_thumb.png 63040386895944564521_thumb.png 99086759474276583400_thumb.png
游客,如果您要查看本帖隐藏内容请回复

回复

使用道具 举报

天王巨星

高清币
46
金钱
2457
鲜花
0
在线时间
432 小时
最后登录
2019-2-16
发表于 6 天前 | 显示全部楼层

楼主太厉害了!楼主,电影应该很好看我觉得中国高清论坛真是个好地方!
回复 支持 反对

使用道具 举报

金鸡奖主角

高清币
502
金钱
5023
鲜花
0
在线时间
909 小时
最后登录
2019-2-15
发表于 6 天前 | 显示全部楼层

楼主太厉害了!楼主,电影应该很好看我觉得中国高清论坛真是个好地方!
回复 支持 反对

使用道具 举报

金鸡奖主角

高清币
986
金钱
2678
鲜花
0
在线时间
309 小时
最后登录
2019-2-16
发表于 6 天前 | 显示全部楼层
  谢谢楼主分享!
回复 支持 反对

使用道具 举报

好莱坞明星

高清币
2069
金钱
4489
鲜花
0
在线时间
1331 小时
最后登录
2019-2-16
发表于 6 天前 | 显示全部楼层

这东西我收了!谢谢楼主!中国高清论坛真好!
回复 支持 反对

使用道具 举报

永恒神话

高清币
14952
金钱
22513
鲜花
0
在线时间
3217 小时
最后登录
2019-2-16
发表于 6 天前 | 显示全部楼层
楼主发贴辛苦了,谢谢楼主分享!我觉得中国高清论坛是注册对了!
回复 支持 反对

使用道具 举报

知名艺人

高清币
1
金钱
425
鲜花
0
在线时间
137 小时
最后登录
2019-2-16
发表于 6 天前 | 显示全部楼层
楼主发贴辛苦了,谢谢楼主分享!我
回复 支持 反对

使用道具 举报

人气偶像

高清币
5
金钱
776
鲜花
0
在线时间
88 小时
最后登录
2019-2-11
发表于 6 天前 | 显示全部楼层
谢谢楼主分享!
回复 支持 反对

使用道具 举报

知名艺人

高清币
0
金钱
708
鲜花
0
在线时间
142 小时
最后登录
2019-2-16
发表于 6 天前 | 显示全部楼层

我看不错噢 谢谢楼主!中国高清论坛越来越好!
回复 支持 反对

使用道具 举报

人气偶像

高清币
52
金钱
709
鲜花
0
在线时间
64 小时
最后登录
2019-2-15
发表于 6 天前 | 显示全部楼层

这个帖子不回对不起自己!我想我是一天也不能离开中国高清论坛
回复 支持 反对

使用道具 举报

懒得打字嘛,点击右侧快捷回复 【右侧内容,后台自定义】
您需要登录后才可以回帖 登录 | 立即注册

本版积分规则

QQ|手机版|小黑屋|中国高清论坛 ( 黔ICP备16007815号-1 )

GMT+8, 2019-2-16 13:44 , Processed in 0.122846 second(s), 29 queries .

Powered by Discuz! X3.4

© 2001-2017 Comsenz Inc.

快速回复 返回顶部 返回列表