请选择 进入手机版 | 继续访问电脑版

中国高清论坛

 找回密码
 立即注册
搜索
查看: 412|回复: 102

[惊悚片] 表象之下 The Appearance.2018.720p.BluRay.H264.AAC-RARBG 2.92GB

  [复制链接]

龙行天下

高清币
27307
金钱
5217
鲜花
20
在线时间
1222 小时
最后登录
2019-2-22
发表于 2019-2-10 15:58:22 | 显示全部楼层 |阅读模式
poster_opt.jpg
导演: Kurt Knight
编剧: Kurt Knight
主演: Jake Stormoen / 克里斯蒂安·奈恩 / 亚当·约翰逊
类型: 惊悚 / 恐怖
制片国家/地区: 美国
语言: 英语
上映日期: 2018-06-17(美国)
片长: 111分钟
IMDb链接: tt6857040

表象之下的剧情简介 · · · · · ·  中世纪,一位修道士意外惨死之后,教会派了一个理性的审判者马塔奥来调查被指控的女巫。随着更多的修道士神秘死亡,马塔奥自己也被牵连其中,他必须明白:科学无法解释他周围的恐怖事件,否则他就将被这个修道院中的魔鬼所引诱……

Video
ID : 0
Format : MPEG-4 Visual
Format profile : Simple@L5
Format settings, BVOP : No
Format settings, QPel : No
Format settings, GMC : No warppoints
Format settings, Matrix : Default (H.263)
Codec ID : XVID
Codec ID/Hint : XviD
Duration : 1 h 51 min
Bit rate : 3 091 kb/s
Width : 1 280 pixels
Height : 536 pixels
Display aspect ratio : 2.40:1
Frame rate : 23.976 (24000/1001) FPS
Color space : YUV
Chroma subsampling : 4:2:0
Bit depth : 8 bits
Scan type : Progressive
Compression mode : Lossy
Bits/(Pixel*Frame) : 0.188
Stream size : 2.41 GiB (83%)
Writing library : Lavc58.35.100

Audio
ID : 1
Format : AC-3
Format/Info : Audio Coding 3
Commercial name : Dolby Digital
Codec ID : 2000
Duration : 1 h 51 min
Bit rate mode : Constant
Bit rate : 640 kb/s
Channel(s) : 6 channels
Channel layout : L R C LFE Ls Rs
Sampling rate : 48.0 kHz
Frame rate : 31.250 FPS (1536 SPF)
Bit depth : 16 bits
Compression mode : Lossy
Stream size : 512 MiB (17%)
Alignment : Aligned on interleaves
Interleave, duration : 42 ms (1.00 video frame)
Interleave, preload duration : 512 ms
Service kind : Complete Main

10108308011429433084_thumb.png 34506604842449838578_thumb.png 71749036221034869607_thumb.png
游客,如果您要查看本帖隐藏内容请回复

回复

使用道具 举报

superstar

高清币
3623
金钱
9350
鲜花
0
在线时间
733 小时
最后登录
2019-2-22
发表于 2019-2-10 16:28:54 | 显示全部楼层

这东西我收了!谢谢楼主!中国高清论坛真好!
回复 支持 1 反对 0

使用道具 举报

金鸡奖主角

高清币
0
金钱
3873
鲜花
0
在线时间
525 小时
最后登录
2019-2-21
发表于 2019-2-10 16:00:11 | 显示全部楼层
楼主发贴辛苦了,谢谢楼主分享!我觉得中国高清论坛是注册对了!
回复 支持 1 反对 0

使用道具 举报

知名艺人

高清币
70
金钱
87
鲜花
0
在线时间
17 小时
最后登录
2019-2-20
发表于 2019-2-10 16:00:12 | 显示全部楼层
感谢楼主分享
回复 支持 反对

使用道具 举报

人气偶像

高清币
1
金钱
1085
鲜花
0
在线时间
204 小时
最后登录
2019-2-21
发表于 2019-2-10 16:06:45 | 显示全部楼层

其实我一直觉得楼主的品味不错!呵呵!中国高清论坛太棒了!
回复 支持 反对

使用道具 举报

影坛巨星

高清币
1429
金钱
8549
鲜花
0
在线时间
1054 小时
最后登录
2019-2-21
发表于 2019-2-10 16:06:56 | 显示全部楼层
楼主发贴辛苦了,谢谢楼主分享!我觉得中国高清论坛是注册对了!
回复 支持 反对

使用道具 举报

天王巨星

高清币
59
金钱
2330
鲜花
0
在线时间
255 小时
最后登录
2019-2-20
发表于 2019-2-10 16:13:36 | 显示全部楼层
楼主发贴辛苦了,谢谢楼主分享!我觉得中国高清论坛是注册对了!
回复 支持 反对

使用道具 举报

超级明星

高清币
2588
金钱
5558
鲜花
0
在线时间
586 小时
最后登录
2019-2-22
发表于 2019-2-10 16:21:43 | 显示全部楼层

这个帖子不回对不起自己!我想我是一天也不能离开中国高清论坛
回复 支持 反对

使用道具 举报

superstar

高清币
3623
金钱
9350
鲜花
0
在线时间
733 小时
最后登录
2019-2-22
发表于 2019-2-10 16:23:03 | 显示全部楼层

这东西我收了!谢谢楼主!中国高清论坛真好!
回复 支持 反对

使用道具 举报

superstar

高清币
3623
金钱
9350
鲜花
0
在线时间
733 小时
最后登录
2019-2-22
发表于 2019-2-10 16:23:39 | 显示全部楼层

其实我一直觉得楼主的品味不错!呵呵!中国高清论坛太棒了!
回复 支持 反对

使用道具 举报

懒得打字嘛,点击右侧快捷回复 【右侧内容,后台自定义】
您需要登录后才可以回帖 登录 | 立即注册

本版积分规则

QQ|手机版|小黑屋|中国高清论坛 ( 黔ICP备16007815号-1 )

GMT+8, 2019-2-22 09:39 , Processed in 0.107918 second(s), 30 queries .

Powered by Discuz! X3.4

© 2001-2017 Comsenz Inc.

快速回复 返回顶部 返回列表