请选择 进入手机版 | 继续访问电脑版

中国高清论坛

 找回密码
 立即注册
搜索
查看: 1844|回复: 408

[惊悚片] 贝鲁特/高压行动(台) High Wire Act.(Beirut).2018.BDRip.1080p.seleZen 12.89 GiB

  [复制链接]

区域版主

高清币
14724
金钱
34487
鲜花
-88
在线时间
10987 小时
最后登录
2019-2-17
发表于 6 天前 | 显示全部楼层 |阅读模式


◎译  名 贝鲁特/高压线上/黎巴嫩1982:亡命救参(港)/高压行动(台)
◎片  名 Beirut
◎年  代 2018
◎产  地 美国
◎类  别 剧情/惊悚
◎语  言 英语
◎IMDb评分  6.5/10 from 1,938 users
◎IMDB链接 http://www.imdb.com/title/tt4669264
◎片  长 1 h 49 min
◎导  演 布拉德·安德森 Brad Anderson
◎主  演 裴淳华 Rosamund Pike
      乔恩·哈姆 Jon Hamm
      马克·佩雷格里诺 Mark Pellegrino
      迪恩·诺里斯 Dean Norris
      谢伊·惠格姆 Shea Whigham
      道格拉斯·霍奇斯 Douglas Hodges
      约翰尼·科瓦内 Jonny Coyne
      莱拉·贝蒂 Leïla Bekhti
      凯特·弗利特伍德 Kate Fleetwood
      阿隆·阿布布尔 Alon Aboutboul
      拉里·派恩 Larry Pine
      索妮亚·奥卡沙 Sonia Okacha
      本·阿凡 Ben Affan



◎简  介



  该片讲述了贝鲁特大屠杀事件,1972年美国一外交官(乔恩·哈姆饰)家中突遭变故,妻子被残忍杀害,而他不得不撤离黎巴嫩。十年后他在中央情报局特工(裴淳华饰)的帮助下重回贝鲁特,以此解救曾经的同事,但这个地方依然是危机四伏。

  1. General
  2. Unique ID : 143819131616802507070106643896914050838 (0x6C328EA5AF6F350DC69468DC373E7F16)
  3. Complete name : D:Video111High Wire Act.(Beirut).2018.BDRip.1080p.seleZen.mkv
  4. Format : Matroska
  5. Format version : Version 4
  6. File size : 12.9 GiB
  7. Duration : 1 h 49 min
  8. Overall bit rate : 16.8 Mb/s
  9. Movie name : High Wire Act from селезень
  10. Encoded date : UTC 2019-02-11 07:46:06
  11. Writing application : mkvmerge v29.0.0 ('Like It Or Not') 64-bit
  12. Writing library : libebml v1.3.6 + libmatroska v1.4.9

  13. Video
  14. ID : 1
  15. Format : AVC
  16. Format/Info : Advanced Video Codec
  17. Format profile : High@L4.1
  18. Format settings : CABAC / 5 Ref Frames
  19. Format settings, CABAC : Yes
  20. Format settings, ReFrames : 5 frames
  21. Codec ID : V_MPEG4/ISO/AVC
  22. Duration : 1 h 49 min
  23. Bit rate : 14.9 Mb/s
  24. Width : 1 920 pixels
  25. Height : 806 pixels
  26. Display aspect ratio : 2.40:1
  27. Frame rate mode : Constant
  28. Frame rate : 23.976 (24000/1001) FPS
  29. Color space : YUV
  30. Chroma subsampling : 4:2:0
  31. Bit depth : 8 bits
  32. Scan type : Progressive
  33. Bits/(Pixel*Frame) : 0.400
  34. Stream size : 11.4 GiB (88%)
  35. Title : @ HDChina
  36. Writing library : x264 core 151 r2836+45 cabfa1f 7mod [8-bit@all X86_64]
  37. Encoding settings : cabac=1 / ref=5 / deblock=1:-3:-3 / analyse=0x3:0x133 / me=umh / subme=11 / psy=1 / fade_compensate=0.00 / psy_rd=0.90:0.00 / mixed_ref=1 / me_range=48 / chroma_me=1 / trellis=2 / 8x8dct=1 / cqm=0 / deadzone=21,11 / fast_pskip=0 / chroma_qp_offset=-2 / threads=16 / lookahead_threads=4 / sliced_threads=0 / nr=0 / decimate=0 / interlaced=0 / bluray_compat=0 / constrained_intra=0 / fgo=0 / bframes=10 / b_pyramid=2 / b_adapt=2 / b_bias=0 / direct=3 / weightb=1 / open_gop=0 / weightp=2 / keyint=240 / keyint_min=24 / scenecut=40 / intra_refresh=0 / rc=crf / mbtree=0 / crf=16.5000 / qcomp=0.60 / qpmin=0:0:0 / qpmax=69:69:69 / qpstep=4 / ip_ratio=1.30 / pb_ratio=1.20 / aq=3:0.90 / aq-sensitivity=10.00 / aq-factor=1.00:1.00:1.00 / aq2=0 / aq3=0
  38. Language : English
  39. Default : Yes
  40. Forced : No
  41. Color range : Limited
  42. Color primaries : BT.709
  43. Transfer characteristics : BT.709
  44. Matrix coefficients : BT.709

  45. Audio #1
  46. ID : 2
  47. Format : AC-3
  48. Format/Info : Audio Coding 3
  49. Commercial name : Dolby Digital
  50. Codec ID : A_AC3
  51. Duration : 1 h 49 min
  52. Bit rate mode : Constant
  53. Bit rate : 448 kb/s
  54. Channel(s) : 6 channels
  55. Channel layout : L R C LFE Ls Rs
  56. Sampling rate : 48.0 kHz
  57. Frame rate : 31.250 FPS (1536 SPF)
  58. Bit depth : 16 bits
  59. Compression mode : Lossy
  60. Stream size : 352 MiB (3%)
  61. Title : Dub [License] - R5 Парадиз
  62. Language : Russian
  63. Service kind : Complete Main
  64. Default : Yes
  65. Forced : Yes

  66. Audio #2
  67. ID : 3
  68. Format : DTS
  69. Format/Info : Digital Theater Systems
  70. Codec ID : A_DTS
  71. Duration : 1 h 49 min
  72. Bit rate mode : Constant
  73. Bit rate : 1 509 kb/s
  74. Channel(s) : 6 channels
  75. Channel layout : C L R Ls Rs LFE
  76. Sampling rate : 48.0 kHz
  77. Frame rate : 93.750 FPS (512 SPF)
  78. Bit depth : 24 bits
  79. Compression mode : Lossy
  80. Stream size : 1.16 GiB (9%)
  81. Title : Original
  82. Language : English
  83. Default : No
  84. Forced : No

  85. Text
  86. ID : 4
  87. Format : UTF-8
  88. Codec ID : S_TEXT/UTF8
  89. Codec ID/Info : UTF-8 Plain Text
  90. Duration : 1 h 44 min
  91. Bit rate : 80 b/s
  92. Count of elements : 1685
  93. Stream size : 61.2 KiB (0%)
  94. Title : SDH
  95. Language : English
  96. Default : No
  97. Forced : No

  98. Menu
  99. 00:00:00.000 : en:1
  100. 00:09:49.798 : en:2
  101. 00:21:31.666 : en:3
  102. 00:34:19.141 : en:4
  103. 00:44:03.934 : en:5
  104. 00:58:29.174 : en:6
  105. 01:11:17.192 : en:7
  106. 01:21:53.745 : en:8
  107. 01:32:33.968 : en:9
复制代码

游客,如果您要查看本帖隐藏内容请回复

回复

使用道具 举报

金鸡奖主角

高清币
25
金钱
3826
鲜花
0
在线时间
432 小时
最后登录
2019-2-17
发表于 6 天前 | 显示全部楼层

这东西我收了!谢谢楼主!中国高清论坛真好!
回复 支持 1 反对 0

使用道具 举报

好莱坞明星

高清币
868
金钱
4797
鲜花
0
在线时间
488 小时
最后登录
2019-2-17
发表于 6 天前 | 显示全部楼层

楼主太厉害了!楼主,电影应该很好看我觉得中国高清论坛真是个好地方!
回复 支持 1 反对 0

使用道具 举报

金鸡奖主角

高清币
723
金钱
3668
鲜花
0
在线时间
354 小时
最后登录
2019-2-17
发表于 6 天前 | 显示全部楼层

这东西我收了!谢谢楼主!中国高清论坛真好!
回复 支持 1 反对 0

使用道具 举报

禁止发言

高清币
21
金钱
25
鲜花
0
在线时间
3 小时
最后登录
2019-2-11
发表于 6 天前 | 显示全部楼层
提示: 作者被禁止或删除 内容自动屏蔽
回复 支持 1 反对 0

使用道具 举报

金鸡奖主角

高清币
36
金钱
3774
鲜花
0
在线时间
748 小时
最后登录
2019-2-17
发表于 6 天前 | 显示全部楼层

我看不错噢 谢谢楼主!中国高清论坛越来越好!
回复 支持 1 反对 0

使用道具 举报

金鸡奖主角

高清币
75
金钱
5493
鲜花
0
在线时间
2072 小时
最后登录
2019-2-17
发表于 6 天前 | 显示全部楼层
楼主发贴辛苦了,谢谢楼主分享!我觉得中国高清论坛是注册对了!
回复 支持 反对

使用道具 举报

人气偶像

高清币
41
金钱
2006
鲜花
0
在线时间
894 小时
最后登录
2019-2-17
发表于 6 天前 | 显示全部楼层
楼主发贴辛苦了,谢谢楼主分享!我觉得中国高清论坛是注册对了!
回复 支持 反对

使用道具 举报

金鸡奖主角

高清币
10
金钱
4187
鲜花
0
在线时间
1209 小时
最后登录
2019-2-16
发表于 6 天前 | 显示全部楼层

楼主太厉害了!楼主,电影应该很好看我觉得中国高清论坛真是个好地方!
回复 支持 反对

使用道具 举报

天王巨星

高清币
68
金钱
3051
鲜花
0
在线时间
782 小时
最后登录
2019-2-17
发表于 6 天前 | 显示全部楼层

这东西我收了!谢谢楼主!中国高清论坛真好!
回复 支持 反对

使用道具 举报

永恒神话

高清币
36478
金钱
71003
鲜花
0
在线时间
5753 小时
最后登录
2019-2-17
发表于 6 天前 | 显示全部楼层

这东西我收了!谢谢楼主!中国高清论坛真好!
回复 支持 反对

使用道具 举报

超级明星

高清币
36
金钱
7616
鲜花
0
在线时间
3622 小时
最后登录
2019-2-17
发表于 6 天前 | 显示全部楼层
楼主发贴辛苦了,谢谢楼主分享!我觉得中国高清论坛是注册对了!
回复 支持 反对

使用道具 举报

天王巨星

高清币
1
金钱
2571
鲜花
0
在线时间
406 小时
最后登录
2019-2-15
发表于 6 天前 | 显示全部楼层

楼主发贴辛苦了,谢谢楼主分享!我觉得中国高清论坛是注册对了!

回复 支持 反对

使用道具 举报

superstar

高清币
2060
金钱
11292
鲜花
0
在线时间
1236 小时
最后登录
2019-2-15
发表于 6 天前 | 显示全部楼层
楼主发贴辛苦了,谢谢楼主分享!我觉得中国高清论坛是注册对了!
回复 支持 反对

使用道具 举报

知名艺人

高清币
1
金钱
495
鲜花
0
在线时间
85 小时
最后登录
2019-2-16
发表于 6 天前 | 显示全部楼层

这东西我收了!谢谢楼主!中国高清论坛真好!
回复 支持 反对

使用道具 举报

懒得打字嘛,点击右侧快捷回复 【右侧内容,后台自定义】
您需要登录后才可以回帖 登录 | 立即注册

本版积分规则

QQ|手机版|小黑屋|中国高清论坛 ( 黔ICP备16007815号-1 )

GMT+8, 2019-2-17 22:25 , Processed in 0.202066 second(s), 29 queries .

Powered by Discuz! X3.4

© 2001-2017 Comsenz Inc.

快速回复 返回顶部 返回列表