请选择 进入手机版 | 继续访问电脑版

中国高清论坛

 找回密码
 立即注册
搜索
查看: 1138|回复: 267

[战争片] 旅程终点/旅程尽头 Journeys.End.2017.BDRip1080p-Unknown 7.75 GiB

  [复制链接]

区域版主

高清币
14724
金钱
34487
鲜花
-88
在线时间
10987 小时
最后登录
2019-2-17
发表于 6 天前 | 显示全部楼层 |阅读模式



◎译  名 旅程终点/旅程尽头
◎片  名 Journey's End
◎年  代 2017
◎国  家 英国
◎类  别 剧情/战争
◎语  言 英语
◎字  幕 英文
◎IMDb评分 7.1/10 from 804 users
◎IMDB链接 https://www.imdb.com/title/tt3780500
◎文件格式 x264 + DTS
◎视频尺寸 1920 x 808
◎文件大小 9.34 GiB
◎片  长 1 h 47 min
◎导  演 索尔·迪勃 Saul Dibb
◎主  演 山姆·克拉弗林 Sam Claflin
      阿萨·巴特菲尔德 Asa Butterfield
      斯蒂芬·格拉汉姆 Stephen Graham
      保罗·贝坦尼 Paul Bettany
      托比·琼斯 Toby Jones
      汤姆·斯图里奇 Tom Sturridge
      罗伯特·格林尼斯特 Robert Glenister
      西奥·巴克利姆比格斯 Theo Barklem-Biggs
      迈尔斯·贾普 Miles Jupp
      杰克·库兰 Jake Curran
      Oliver Dimsdale
      安迪·加什古德 Andy Gathergood
      Nicholas Agnew
      Jack Holden

◎简  介

  1918年3月,厌战的斯坦诺普上尉带领C连前往法国北部的前线战壕参与战斗,德军的进攻迫在眉睫,军官们和随军厨师通过讨论食物和战前生活来分散注意力,而斯坦诺普则持续酗酒意图驱除不可避免的恐惧。一个刚刚结束训练的新军罗利对自己的首次任务十分兴奋,不过他的上司却是斯坦诺普——他的前校舍监督员以及他姐姐的爱慕对象。每个人都陷入不安的情绪中,日子一天一天的过去,紧张局势不断升级,攻击越来越接近。
  1. General
  2. Уникальный идентификатор : 183581930939073776009586548940615838960 (0x8A1C980390AAAB4E9ECA718B794DECF0)
  3. Полное имя : E:TorrentJourneysEndBDRip1080p.mkv
  4. Формат : Matroska
  5. Версия формата : Version 4 / Version 2
  6. Размер файла : 7.75 GiB
  7. Продолжительность : 1 h 47 min
  8. Общий поток : 10.3 Mb/s
  9. Дата кодирования : UTC 2019-02-10 22:23:26
  10. Программа кодирования : mkvmerge v9.5.0 ('Quiet Fire') 64bit
  11. Библиотека кодирования : libebml v1.3.4 + libmatroska v1.4.5

  12. Video
  13. Идентификатор : 1
  14. Формат : AVC
  15. Формат/Информация : Advanced Video Codec
  16. Профиль формата : High@L4.1
  17. Настройки формата : CABAC / 5 Ref Frames
  18. Параметр CABAC формата : Yes
  19. Параметр RefFrames формата : 5 frames
  20. Идентификатор кодека : V_MPEG4/ISO/AVC
  21. Продолжительность : 1 h 47 min
  22. Битрейт : 9 471 kb/s
  23. Ширина : 1 920 pixels
  24. Высота : 800 pixels
  25. Соотношение сторон : 2.40:1
  26. Режим частоты кадров : Constant
  27. Частота кадров : 24.000 FPS
  28. Цветовое пространство : YUV
  29. Субдискретизация насыщенности : 4:2:0
  30. Битовая глубина : 8 bits
  31. Тип развёртки : Progressive
  32. Бит/(Пиксели*Кадры) : 0.257
  33. Размер потока : 7.12 GiB (92%)
  34. Библиотека кодирования : x264 core 157 r2935 545de2f
  35. Настройки программы : cabac=1 / ref=5 / deblock=1:-2:-2 / analyse=0x3:0x113 / me=umh / subme=11 / psy=1 / psy_rd=1.00:0.00 / mixed_ref=1 / me_range=32 / chroma_me=1 / trellis=2 / 8x8dct=1 / cqm=0 / deadzone=21,11 / fast_pskip=0 / chroma_qp_offset=-2 / threads=9 / lookahead_threads=2 / sliced_threads=0 / nr=0 / decimate=0 / interlaced=0 / bluray_compat=0 / constrained_intra=0 / bframes=14 / b_pyramid=2 / b_adapt=2 / b_bias=0 / direct=3 / weightb=1 / open_gop=0 / weightp=2 / keyint=240 / keyint_min=24 / scenecut=40 / intra_refresh=0 / rc_lookahead=120 / rc=2pass / mbtree=0 / bitrate=9471 / ratetol=1.0 / qcomp=0.70 / qpmin=0 / qpmax=69 / qpstep=4 / cplxblur=20.0 / qblur=0.5 / vbv_maxrate=50000 / vbv_bufsize=62500 / nal_hrd=none / filler=0 / ip_ratio=1.40 / pb_ratio=1.30 / aq=2:0.80
  36. Язык : English
  37. Default : Yes
  38. Forced : No
  39. Цветовой диапазон : Limited
  40. Основные цвета : BT.709
  41. Характеристики трансфера : BT.709
  42. Коэффициенты матрицы : BT.709

  43. Audio #1
  44. Идентификатор : 2
  45. Формат : AC-3
  46. Формат/Информация : Audio Coding 3
  47. Идентификатор кодека : A_AC3
  48. Продолжительность : 1 h 47 min
  49. Вид битрейта : Constant
  50. Битрейт : 384 kb/s
  51. Каналы : 6 channels
  52. Расположение каналов : Front: L C R, Side: L R, LFE
  53. Частота : 48.0 kHz
  54. Частота кадров : 31.250 FPS (1536 SPF)
  55. Битовая глубина : 16 bits
  56. Метод сжатия : Lossy
  57. Размер потока : 296 MiB (4%)
  58. Язык : Russian
  59. Default : Yes
  60. Forced : No

  61. Audio #2
  62. Идентификатор : 3
  63. Формат : AC-3
  64. Формат/Информация : Audio Coding 3
  65. Идентификатор кодека : A_AC3
  66. Продолжительность : 1 h 47 min
  67. Вид битрейта : Constant
  68. Битрейт : 448 kb/s
  69. Каналы : 6 channels
  70. Расположение каналов : Front: L C R, Side: L R, LFE
  71. Частота : 48.0 kHz
  72. Частота кадров : 31.250 FPS (1536 SPF)
  73. Битовая глубина : 16 bits
  74. Метод сжатия : Lossy
  75. Размер потока : 345 MiB (4%)
  76. Язык : English
  77. Default : No
  78. Forced : No

  79. Text #1
  80. Идентификатор : 4
  81. Формат : UTF-8
  82. Идентификатор кодека : S_TEXT/UTF8
  83. Идентификатор кодека/Информация : UTF-8 Plain Text
  84. Продолжительность : 1 h 40 min
  85. Битрейт : 1 b/s
  86. ElementCount : 23
  87. Размер потока : 1.29 KiB (0%)
  88. Заголовок : rusForced
  89. Язык : Russian
  90. Default : Yes
  91. Forced : Yes

  92. Text #2
  93. Идентификатор : 5
  94. Формат : UTF-8
  95. Идентификатор кодека : S_TEXT/UTF8
  96. Идентификатор кодека/Информация : UTF-8 Plain Text
  97. Продолжительность : 1 h 40 min
  98. Битрейт : 74 b/s
  99. ElementCount : 1110
  100. Размер потока : 55.0 KiB (0%)
  101. Заголовок : rusFull
  102. Язык : Russian
  103. Default : No
  104. Forced : No

  105. Text #3
  106. Идентификатор : 6
  107. Формат : UTF-8
  108. Идентификатор кодека : S_TEXT/UTF8
  109. Идентификатор кодека/Информация : UTF-8 Plain Text
  110. Продолжительность : 1 h 37 min
  111. Битрейт : 46 b/s
  112. ElementCount : 1097
  113. Размер потока : 33.3 KiB (0%)
  114. Заголовок : engFull
  115. Язык : English
  116. Default : No
  117. Forced : No

  118. Menu
  119. 00:00:00.000 : :Chapter 01
  120. 00:07:56.708 : :Chapter 02
  121. 00:16:49.250 : :Chapter 03
  122. 00:26:05.500 : :Chapter 04
  123. 00:34:21.125 : :Chapter 05
  124. 00:43:53.541 : :Chapter 06
  125. 00:51:38.208 : :Chapter 07
  126. 00:59:18.208 : :Chapter 08
  127. 01:08:51.041 : :Chapter 09
  128. 01:15:47.500 : :Chapter 10
  129. 01:24:45.250 : :Chapter 11
  130. 01:32:01.333 : :Chapter 12
复制代码



游客,如果您要查看本帖隐藏内容请回复

回复

使用道具 举报

金鸡奖主角

高清币
879
金钱
6109
鲜花
0
在线时间
931 小时
最后登录
2019-2-17
发表于 6 天前 | 显示全部楼层

我看不错噢 谢谢楼主!中国高清论坛越来越好!
回复 支持 2 反对 0

使用道具 举报

跑龙套

高清币
13
金钱
17
鲜花
0
在线时间
0 小时
最后登录
2019-2-12
发表于 6 天前 | 显示全部楼层

少女汁源 很多资深老司机都在这 :www.82k.me   
回复 支持 1 反对 0

使用道具 举报

永恒神话

高清币
36478
金钱
71003
鲜花
0
在线时间
5753 小时
最后登录
2019-2-17
发表于 6 天前 | 显示全部楼层

楼主太厉害了!楼主,电影应该很好看我觉得中国高清论坛真是个好地方!
回复 支持 反对

使用道具 举报

金鸡奖主角

高清币
2
金钱
4853
鲜花
0
在线时间
1470 小时
最后登录
2019-2-17
发表于 6 天前 | 显示全部楼层

楼主,大恩不言谢了!中国高清论坛是最棒的!
回复 支持 反对

使用道具 举报

知名艺人

高清币
124
金钱
203
鲜花
0
在线时间
17 小时
最后登录
2019-2-17
发表于 6 天前 | 显示全部楼层

楼主太厉害了!楼主,电影应该很好看我觉得中国高清论坛真是个好地方!
回复 支持 反对

使用道具 举报

金鸡奖主角

高清币
696
金钱
4744
鲜花
0
在线时间
825 小时
最后登录
2019-2-17
发表于 6 天前 | 显示全部楼层
谢谢楼主分享
回复 支持 反对

使用道具 举报

金鸡奖主角

高清币
504
金钱
5029
鲜花
0
在线时间
910 小时
最后登录
2019-2-17
发表于 6 天前 | 显示全部楼层

这个帖子不回对不起自己!我想我是一天也不能离开中国高清论坛
回复 支持 反对

使用道具 举报

永恒神话

高清币
16131
金钱
28142
鲜花
0
在线时间
1990 小时
最后登录
2019-2-17
发表于 6 天前 | 显示全部楼层
谢谢发片,辛苦了
回复 支持 反对

使用道具 举报

金鸡奖主角

高清币
211
金钱
4612
鲜花
0
在线时间
782 小时
最后登录
2019-2-14
发表于 6 天前 | 显示全部楼层

感谢楼主分享
回复 支持 反对

使用道具 举报

金鸡奖主角

高清币
43
金钱
4538
鲜花
0
在线时间
1785 小时
最后登录
2019-2-17
发表于 6 天前 | 显示全部楼层
楼主发贴辛苦了,谢谢楼主分享!我觉得中国高清论坛是注册对了!
回复 支持 反对

使用道具 举报

金鸡奖主角

高清币
211
金钱
4612
鲜花
0
在线时间
782 小时
最后登录
2019-2-14
发表于 6 天前 | 显示全部楼层

感谢楼主分享
回复 支持 反对

使用道具 举报

懒得打字嘛,点击右侧快捷回复 【右侧内容,后台自定义】
您需要登录后才可以回帖 登录 | 立即注册

本版积分规则

QQ|手机版|小黑屋|中国高清论坛 ( 黔ICP备16007815号-1 )

GMT+8, 2019-2-17 22:38 , Processed in 0.103261 second(s), 30 queries .

Powered by Discuz! X3.4

© 2001-2017 Comsenz Inc.

快速回复 返回顶部 返回列表