请选择 进入手机版 | 继续访问电脑版

中国高清论坛

 找回密码
 立即注册
搜索
查看: 434|回复: 121

[犯罪片] 小偷家族 Shoplifters.2018.SUBBED.720p.AMZN.WEBRip.DDP5.1.x264-NTG 3.90 GiB

  [复制链接]

区域版主

高清币
14698
金钱
34433
鲜花
-88
在线时间
10987 小时
最后登录
2019-2-16
发表于 4 天前 | 显示全部楼层 |阅读模式



◎译  名 小偷家族
◎片  名 Shoplifters/Une Affaire de Famille/Manbiki kazoku/万引き家族
◎年  代 2018
◎国  家 日本
◎类  别 犯罪/剧情
◎语  言 日语
◎IMDb评分 8.1/10 from 13,396 users
◎IMDB链接 https://www.imdb.com/title/tt8075192
◎片  长 2 h 0 min
◎导  演 是枝裕和 Hirokazu Koreeda
◎主  演 中川雅也 Lily Franky
       安藤樱 Sakura Andô
       松冈茉优 Mayu Matsuoka
       城桧吏 Jyo Kairi
       佐佐木美结 Miyu Sasaki

◎简  介 

  做短工的治(中川雅也饰)与妻子信代(安藤樱饰)、儿子祥太(城桧吏 饰)、信代的妹妹亚纪(松冈茉优饰)以及老母亲初枝(树木希林饰)依靠母亲的养老保险,在破烂的平房中艰难度日。治与儿子祥太做扒手,亚纪打工补贴家用。某一天,治带回在住宅区被冻僵的少女由里(佐佐木美雪 饰),加入了他们原本就贫困潦倒的家庭中。一件事打破了原本的平衡,每个人心中隐藏的秘密和愿望也逐渐明朗。

花絮

.本片在日本国内329块银幕上同时公映,首周初登场排名第一位,观众满意度排名第七位。首映前两日总共动员约36万人入场观看,票房收入约为4.45亿日元。

.是枝裕和凭借该片荣获第71届戛纳电影节金棕榈大奖,这是日本电影21年来首次获得该奖项。此前,是枝裕和曾七次征战戛纳。其《无人知晓》和《如父如子》分别拿过戛纳的最佳男主角奖和评委会大奖。

.荣获金棕榈大奖的日本电影总共有五部,分别为衣笠贞之助的《地狱门》(1953)、黑泽明的《影武者》(1981)、今村昌平的《楢山节考》(1983)和《鳗鱼》(1997),以及这次的《小偷家族》。

.此次是实力派女演员安藤樱第一次参演是枝裕和的影片,同时也是她生子后接拍的第一部电影。其实是枝裕和原打算找年龄更大一点的女演员的,但偶然和安藤樱在某城市邂逅,交谈过后决定启用安藤樱。

.影片有一场一家人在海边玩耍的戏,Lily Franky看过剧照后评价,“这简直就是贫穷版的《海街日记》。”

.接受警方审讯时,安藤樱有一场即兴表演,曾令演对手戏的池胁千鹤接招困难。Lily Franky高度评价,“这场戏最佳女主角奖没问题啊!”另外,安藤原本和松冈茉优有一场厮打的戏,但最后被删掉了。

.《小偷家族》获金棕榈,安藤樱也功不可没。评审团主席凯特·布兰切特采访中称,安藤樱那场悔恨的哭戏入木三分,简直成为表演范本,而且评审团中许多女性演员由此成为她的俘虏。

.还是这场哭戏,是枝裕和回忆拍摄时,其中一名副导演感叹“就凭这场戏,参加这部电影拍摄就有意义。”是枝导演则回忆当时自己的鸡皮疙瘩都起来了,难以相信安藤樱能把哭戏表现成这样。

.是枝裕和的作品中,素人小演员往往是影片的亮点。城桧吏被评价具有影帝柳乐优弥的气质。佐佐木美雪则是在视听时,因为吃薯片的样子超级搞笑而被是枝裕和一眼相中。当然,片中也有吃薯片的镜头。

.为了贴近饰演的角色,Lily Franky在开拍前还专门去日光浴沙龙去晒皮肤。然而等看到试映后,他痛感“皮肤不黑,晒得远远不够。”

.在与斯皮尔伯格洽谈翻拍《如父如子》事宜期间,斯皮尔曾专门询问是枝裕和,“Lily Franky究竟是什么人?演员吗?”是枝导演答道,“他是插画家,也写小品文,还搞戏剧,却独独不是演员。”

.是枝裕和谢绝了日本文部科学大臣林芳正的当面祝贺,他此前在博客中写道“电影曾服务‘国策’而招致不幸,通过反省,那么与公权保持距离不恰是正确之举吗?”

.另外,安倍晋三并未对《小偷家族》发表祝贺。

.首映式上,安藤樱语不惊人死不休,称Lily Franky是比自己“拥有更多人生经验的,每天都睡在一起的老狗。”

获奖记录

奥斯卡金像奖(2019;第91届)
提名
·奥斯卡奖-最佳外语片是枝裕和 Hirokazu Koreeda  


戛纳电影节(2018;第71届)
获奖
·金棕榈奖是枝裕和 Hirokazu Koreeda  

美国金球奖(2019;第76届)
提名
·电影类-最佳外语片

  1. Video
  2. ID : 1
  3. Format : AVC
  4. Format/Info : Advanced Video Codec
  5. Format profile : [email]High@L3.1[/email]
  6. Format settings : CABAC / 4 Ref Frames
  7. Format settings, CABAC : Yes
  8. Format settings, ReFrames : 4 frames
  9. Codec ID : V_MPEG4/ISO/AVC
  10. Duration : 2 h 0 min
  11. Bit rate mode : Constant
  12. Bit rate : 3 977 kb/s
  13. Nominal bit rate : 6 000 kb/s
  14. Width : 1 280 pixels
  15. Height : 688 pixels
  16. Display aspect ratio : 1.85:1
  17. Frame rate mode : Constant
  18. Frame rate : 23.976 (24000/1001) FPS
  19. Color space : YUV
  20. Chroma subsampling : 4:2:0
  21. Bit depth : 8 bits
  22. Scan type : Progressive
  23. Bits/(Pixel*Frame) : 0.188
  24. Stream size : 3.36 GiB (86%)
  25. Default : Yes
  26. Forced : No
  27. Color range : Limited
  28. Color primaries : BT.709
  29. Transfer characteristics : BT.709
  30. Matrix coefficients : BT.709

  31. Audio
  32. ID : 2
  33. Format : E-AC-3
  34. Format/Info : Enhanced AC-3
  35. Commercial name : Dolby Digital Plus
  36. Codec ID : A_EAC3
  37. Duration : 2 h 0 min
  38. Bit rate mode : Constant
  39. Bit rate : 640 kb/s
  40. Channel(s) : 6 channels
  41. Channel layout : L R C LFE Ls Rs
  42. Sampling rate : 48.0 kHz
  43. Frame rate : 31.250 FPS (1536 SPF)
  44. Compression mode : Lossy
  45. Stream size : 553 MiB (14%)
  46. Language : English
  47. Service kind : Complete Main
  48. Default : Yes
  49. Forced : No

  50. Text
  51. ID : 3
  52. Format : UTF-8
  53. Codec ID : S_TEXT/UTF8
  54. Codec ID/Info : UTF-8 Plain Text
  55. Duration : 1 h 56 min
  56. Bit rate : 5 b/s
  57. Count of elements : 347
  58. Stream size : 4.32 KiB (0%)
  59. Title : SDH
  60. Language : English
  61. Default : No
  62. Forced : No
复制代码







游客,如果您要查看本帖隐藏内容请回复

回复

使用道具 举报

人气偶像

高清币
2
金钱
956
鲜花
0
在线时间
165 小时
最后登录
2019-2-15
发表于 4 天前 | 显示全部楼层
这个帖子不回对不起自己!我想我是一天也不能离开中国高清论坛。
回复 支持 反对

使用道具 举报

跑龙套

高清币
21
金钱
31
鲜花
0
在线时间
5 小时
最后登录
2019-2-13
发表于 4 天前 | 显示全部楼层

小学生 黄漫 人畜 :www.82k.me
回复 支持 反对

使用道具 举报

金鸡奖主角

高清币
1166
金钱
3934
鲜花
0
在线时间
306 小时
最后登录
2019-2-16
发表于 4 天前 | 显示全部楼层
楼主发贴辛苦了,谢谢楼主分享!我觉得中国高清论坛是注册对了!
回复 支持 反对

使用道具 举报

跑龙套

高清币
-1
金钱
28
鲜花
0
在线时间
3 小时
最后登录
2019-2-12
发表于 4 天前 | 显示全部楼层

楼主太厉害了!楼主,电影应该很好看我觉得中国高清论坛真是个好地方!
回复 支持 反对

使用道具 举报

金鸡奖主角

高清币
1545
金钱
2591
鲜花
0
在线时间
394 小时
最后登录
2019-2-16
发表于 4 天前 | 显示全部楼层

感谢楼主的无私分享!要想中国高清论坛好 就靠你我他
回复 支持 反对

使用道具 举报

人气偶像

高清币
51
金钱
1540
鲜花
0
在线时间
186 小时
最后登录
2019-2-14
发表于 4 天前 | 显示全部楼层
楼主发贴辛苦了,谢谢楼主分享!我觉得中国高清论坛是注册对了!
回复 支持 反对

使用道具 举报

天王巨星

高清币
194
金钱
2056
鲜花
0
在线时间
915 小时
最后登录
2019-2-16
发表于 4 天前 | 显示全部楼层

这个帖子不回对不起自己!我想我是一天也不能离开中国高清论坛
回复 支持 反对

使用道具 举报

知名艺人

高清币
14
金钱
184
鲜花
0
在线时间
38 小时
最后登录
2019-2-15
发表于 4 天前 | 显示全部楼层
楼主发贴辛苦了,谢谢楼主分享

回复 支持 反对

使用道具 举报

金鸡奖主角

高清币
2
金钱
4126
鲜花
0
在线时间
828 小时
最后登录
2019-2-16
发表于 4 天前 | 显示全部楼层

楼主太厉害了!楼主,电影应该很好看我觉得中国高清论坛真是个好地方!
回复 支持 反对

使用道具 举报

懒得打字嘛,点击右侧快捷回复 【右侧内容,后台自定义】
您需要登录后才可以回帖 登录 | 立即注册

本版积分规则

QQ|手机版|小黑屋|中国高清论坛 ( 黔ICP备16007815号-1 )

GMT+8, 2019-2-16 14:10 , Processed in 0.151736 second(s), 29 queries .

Powered by Discuz! X3.4

© 2001-2017 Comsenz Inc.

快速回复 返回顶部 返回列表