请选择 进入手机版 | 继续访问电脑版

中国高清论坛

 找回密码
 立即注册
搜索
查看: 763|回复: 165

[动作片] 回溯者 Backtrace.2018.720p.BluRay.x264.DTS-MT 6.1GB

  [复制链接]

龙行天下

高清币
27266
金钱
5199
鲜花
20
在线时间
1218 小时
最后登录
2019-2-21
发表于 2019-2-12 21:33:35 | 显示全部楼层 |阅读模式
fc9db025bc2f2145bbeb02ae40687396.jpg

◎译  名 回溯者 / 回溯
◎片  名 Backtrace
◎年  代 2018
◎产  地 美国
◎类  别 动作
◎语  言 英语
◎上映日期 2018-12-14(美国)
◎IMDb评分 3.6/10 from 1133 users
◎豆瓣评分 3.6/10 from 339 users
◎片  长 92分钟
◎导  演 布莱恩·A·米勒 Brian A Miller
◎编  剧 Mike Maples
◎主  演 西尔维斯特·史泰龙 Sylvester Stallone



◎简  介  

  运钞车抢劫案唯一幸存的劫匪从一个戒备森严的精神病院逃脱,但他被注射了一种试验性药物……

Video
ID : 1
Format : AVC
Format/Info : Advanced Video Codec
Format profile : High@L4.1
Format settings : CABAC / 9 Ref Frames
Format settings, CABAC : Yes
Format settings, ReFrames : 9 frames
Codec ID : V_MPEG4/ISO/AVC
Duration : 1 h 27 min
Bit rate : 8 463 kb/s
Width : 1 280 pixels
Height : 692 pixels
Display aspect ratio : 1.85:1
Frame rate mode : Constant
Frame rate : 23.976 (24000/1001) FPS
Color space : YUV
Chroma subsampling : 4:2:0
Bit depth : 8 bits
Scan type : Progressive
Bits/(Pixel*Frame) : 0.399
Stream size : 5.17 GiB (85%)
Writing library : x264 core 157 r2938 2b00a84 TnP@MTeam Mod
Encoding settings : cabac=1 / ref=9 / deblock=1:-3:-3 / analyse=0x3:0x133 / me=umh / subme=10 / psy=1 / psy_rd=1.05:0.00 / mixed_ref=1 / me_range=32 / chroma_me=1 / trellis=2 / 8x8dct=1 / cqm=0 / deadzone=21,11 / fast_pskip=0 / chroma_qp_offset=-2 / threads=12 / lookahead_threads=2 / sliced_threads=0 / nr=0 / decimate=0 / interlaced=0 / bluray_compat=0 / constrained_intra=0 / bframes=8 / b_pyramid=2 / b_adapt=2 / b_bias=0 / direct=3 / weightb=1 / open_gop=0 / weightp=2 / keyint=250 / keyint_min=24 / scenecut=40 / intra_refresh=0 / rc_lookahead=250 / rc=crf / mbtree=0 / crf=17.5 / qcomp=0.60 / qpmin=0 / qpmax=69 / qpstep=4 / vbv_maxrate=62500 / vbv_bufsize=78125 / crf_max=0.0 / nal_hrd=none / filler=0 / ip_ratio=1.30 / pb_ratio=1.20 / aq=3:0.80
Language : English
Default : Yes
Forced : No
Color range : Limited
Color primaries : BT.709
Matrix coefficients : BT.709

Audio
ID : 2
Format : DTS
Format/Info : Digital Theater Systems
Codec ID : A_DTS
Duration : 1 h 27 min
Bit rate mode : Constant
Bit rate : 1 509 kb/s
Channel(s) : 6 channels
Channel layout : C L R Ls Rs LFE
Sampling rate : 48.0 kHz
Frame rate : 93.750 FPS (512 SPF)
Bit depth : 24 bits
Compression mode : Lossy
Stream size : 944 MiB (15%)
Language : English
Default : Yes
Forced : No

Text #1
ID : 3
Format : UTF-8
Codec ID : S_TEXT/UTF8
Codec ID/Info : UTF-8 Plain Text
Duration : 1 h 20 min
Bit rate : 43 b/s
Count of elements : 825
Stream size : 25.8 KiB (0%)
Language : English
Default : Yes
Forced : No

Text #2
ID : 4
Format : UTF-8
Codec ID : S_TEXT/UTF8
Codec ID/Info : UTF-8 Plain Text
Duration : 1 h 20 min
Bit rate : 48 b/s
Count of elements : 930
Stream size : 28.4 KiB (0%)
Title : SDH
Language : English
Default : No
Forced : No

Menu
00:00:00.000 : en:Chapter 01
00:08:52.782 : en:Chapter 02
00:12:46.766 : en:Chapter 03
00:18:55.134 : en:Chapter 04
00:21:48.515 : en:Chapter 05
00:29:24.096 : en:Chapter 06
00:33:09.446 : en:Chapter 07
00:37:35.044 : en:Chapter 08
00:43:24.352 : en:Chapter 09
00:49:42.062 : en:Chapter 10
00:56:37.227 : en:Chapter 11
01:01:12.711 : en:Chapter 12
01:05:37.392 : en:Chapter 13
01:12:37.186 : en:Chapter 14
01:20:35.706 : en:Chapter 15
01:23:26.626 : en:Chapter 16

f5e7f9e0157d122b81e88a794f2f7636.jpg 74127586e2645f2b9a4bd65db531f26f.jpg
游客,如果您要查看本帖隐藏内容请回复

回复

使用道具 举报

跑龙套

高清币
18
金钱
22
鲜花
0
在线时间
0 小时
最后登录
2019-2-13
发表于 2019-2-12 22:29:52 | 显示全部楼层



小学生 黄漫 人畜 :www.82k.me
回复 支持 1 反对 0

使用道具 举报

知名艺人

高清币
14
金钱
312
鲜花
0
在线时间
52 小时
最后登录
2019-2-20
发表于 2019-2-12 22:01:11 | 显示全部楼层
感谢分享精彩好电影!!!
回复 支持 1 反对 0

使用道具 举报

超级明星

高清币
59
金钱
8149
鲜花
0
在线时间
2695 小时
最后登录
2019-2-21
发表于 2019-2-12 21:43:09 | 显示全部楼层

这东西我收了!谢谢楼主!中国高清论坛真好!
回复 支持 1 反对 0

使用道具 举报

永恒神话

高清币
8239
金钱
29852
鲜花
10
在线时间
1885 小时
最后登录
2019-2-21
发表于 2019-2-12 21:59:00 | 显示全部楼层
感谢分享精彩好电影!!!
回复 支持 反对

使用道具 举报

知名艺人

高清币
14
金钱
312
鲜花
0
在线时间
52 小时
最后登录
2019-2-20
发表于 2019-2-12 22:01:33 | 显示全部楼层
感谢分享精彩好电影!!!
回复 支持 反对

使用道具 举报

金鸡奖主角

高清币
484
金钱
4574
鲜花
0
在线时间
713 小时
最后登录
2019-2-18
发表于 2019-2-12 22:03:32 | 显示全部楼层
楼主发贴辛苦了,谢谢楼主分享!我觉得中国高清论坛是注册对了!
回复 支持 反对

使用道具 举报

金鸡奖主角

高清币
182
金钱
3881
鲜花
0
在线时间
719 小时
最后登录
2019-2-21
发表于 2019-2-12 22:07:30 | 显示全部楼层
感谢楼主分享!
回复 支持 反对

使用道具 举报

知名艺人

高清币
55
金钱
180
鲜花
0
在线时间
12 小时
最后登录
2019-2-21
发表于 2019-2-12 22:09:51 | 显示全部楼层
感谢楼主的分享 感谢中国高清论坛
回复 支持 反对

使用道具 举报

知名艺人

高清币
7
金钱
477
鲜花
0
在线时间
43 小时
最后登录
2019-2-19
发表于 2019-2-12 22:10:00 | 显示全部楼层

既然你诚信诚意的推荐了,那我就勉为其难的看看吧!中国高清论坛不走平凡路。
回复 支持 反对

使用道具 举报

懒得打字嘛,点击右侧快捷回复 【右侧内容,后台自定义】
您需要登录后才可以回帖 登录 | 立即注册

本版积分规则

QQ|手机版|小黑屋|中国高清论坛 ( 黔ICP备16007815号-1 )

GMT+8, 2019-2-21 22:39 , Processed in 0.623334 second(s), 30 queries .

Powered by Discuz! X3.4

© 2001-2017 Comsenz Inc.

快速回复 返回顶部 返回列表