请选择 进入手机版 | 继续访问电脑版

中国高清论坛

 找回密码
 立即注册
搜索
查看: 538|回复: 189

[1080P] 徒手攀岩 Free.Solo.2018.1080p.AMZN.WEBRip.DDP5.1.x264-NTG 6.37GB

  [复制链接]

龙行天下

高清币
26874
金钱
5147
鲜花
20
在线时间
1203 小时
最后登录
2019-2-13
发表于 6 天前 | 显示全部楼层 |阅读模式
a68913df828d5a3d2f7203838c3fd45a.jpg
◎译  名 徒手攀岩 / National Geographic: Free Solo
◎片  名 Free Solo
◎年  代 2018
◎产  地 美国
◎类  别 纪录片
◎语  言 英语
◎上映日期 2018-09-28(美国)
◎IMDb评分 8.6/10 from 5218 users
◎豆瓣评分 9.2/10 from 779 users
◎片  长 97分钟
◎导  演 金国威 Jimmy Chin / 伊丽莎白·柴·瓦沙瑞莉 Elizabeth Chai Vasarhelyi
◎主  演 Alex Honnold



◎简  介  

  From award-winning documentary filmmaker E. Chai Vasarhelyi (“MERU”) and world-renowned photographer and mountaineer Jimmy Chin comes National Geographic Documentary Film’s FREE SOLO, a stunning, intimate and unflinching portrait of the free soloist climber Alex Honnold, as he prepares to achieve his lifelong dream: climbing the face of the world’s most famous rock...the 3,000ft El Capitan in Yosemite National Park…without a rope.
Celebrated as one of the greatest athletic feats of any kind, Honnold’s climb set the ultimate standard: perfection or death. Succeeding in this challenge, Honnold enters his story in the annals of human achievement. FREE SOLO is both an edge-of-your seat thriller and an inspiring portrait of an athlete who exceeded our current understanding of human physical and mental potential. The result is a triumph of the human spirit.

◎获奖情况  

  第91届奥斯卡金像奖(2019)
  最佳纪录长片(提名) 埃文·海耶斯 / 香农·迪尔 / 伊丽莎白·柴·瓦沙瑞莉 / 金国威

  第72届英国电影学院奖(2019)
  电影奖 最佳纪录片

  第43届多伦多国际电影节(2018)
  观众选择奖 纪录片单元

  第71届美国导演工会奖(2019)
  最佳纪录片导演(提名) 伊丽莎白·柴·瓦沙瑞莉 / 金国威

  第30届美国制片人工会奖(2019)
  最佳纪录片制片人奖(提名)

  第69届美国剪辑工会奖(2019)
  纪录片最佳剪辑 Bob Eisenhardt

  第66届美国音效剪辑协会奖(2019)
  金卷轴奖 最佳纪录片音效剪辑(提名)

  第55届美国声音效果协会奖(2019)
  纪录片最佳音效(提名)

  第90届美国国家评论协会奖(2018)
  五佳纪录片

  第23届金卫星奖(2019)
  电影部门 最佳纪录片(提名)

  第17届华盛顿影评人协会奖(2018)
  最佳纪录片(提名)

  第31届芝加哥影评人协会奖(2018)
  最佳纪录片(提名)

  第17届旧金山影评人协会奖(2018)
  最佳纪录片(提名)

  第18届温哥华影评人协会奖(2019)
  最佳纪录片(提名)

  第52届堪萨斯影评人协会奖(2018)
  最佳纪录片(提名)

  第22届美国在线影评人协会奖(2019)
  最佳纪录片(提名)

Video
ID : 1
Format : AVC
Format/Info : Advanced Video Codec
Format profile : High@L4
Format settings : CABAC / 4 Ref Frames
Format settings, CABAC : Yes
Format settings, ReFrames : 4 frames
Codec ID : V_MPEG4/ISO/AVC
Duration : 1 h 40 min
Bit rate mode : Constant
Bit rate : 8 474 kb/s
Nominal bit rate : 10 000 kb/s
Width : 1 920 pixels
Height : 1 040 pixels
Display aspect ratio : 1.85:1
Frame rate mode : Constant
Frame rate : 23.976 (24000/1001) FPS
Color space : YUV
Chroma subsampling : 4:2:0
Bit depth : 8 bits
Scan type : Progressive
Bits/(Pixel*Frame) : 0.177
Stream size : 5.92 GiB (93%)
Default : Yes
Forced : No
Color range : Limited
Color primaries : BT.709
Transfer characteristics : BT.709
Matrix coefficients : BT.709

Audio
ID : 2
Format : E-AC-3
Format/Info : Enhanced AC-3
Commercial name : Dolby Digital Plus
Codec ID : A_EAC3
Duration : 1 h 40 min
Bit rate mode : Constant
Bit rate : 640 kb/s
Channel(s) : 6 channels
Channel layout : L R C LFE Ls Rs
Sampling rate : 48.0 kHz
Frame rate : 31.250 FPS (1536 SPF)
Compression mode : Lossy
Stream size : 458 MiB (7%)
Language : English
Service kind : Complete Main
Default : Yes
Forced : No

Text
ID : 3
Format : UTF-8
Codec ID : S_TEXT/UTF8
Codec ID/Info : UTF-8 Plain Text
Duration : 1 h 39 min
Bit rate : 87 b/s
Count of elements : 1366
Stream size : 63.8 KiB (0%)
Title : SDH
Language : English
Default : No
Forced : No

0667bb2b906443e1cc1bd0c569851761.jpg c8c1e4993fe6c643d9ee9b277a0ca015.jpg
游客,如果您要查看本帖隐藏内容请回复

回复

使用道具 举报

好莱坞明星

高清币
1396
金钱
6459
鲜花
0
在线时间
248 小时
最后登录
2019-2-19
发表于 6 天前 | 显示全部楼层
楼主发贴辛苦了,谢谢楼主分享!我觉得中国高清论坛是注册对了!
回复 支持 反对

使用道具 举报

永恒神话

高清币
7027
金钱
9233
鲜花
0
在线时间
1345 小时
最后登录
2019-2-18
发表于 6 天前 | 显示全部楼层

我看不错噢 谢谢楼主!中国高清论坛越来越好!
回复 支持 反对

使用道具 举报

天王巨星

高清币
351
金钱
1754
鲜花
0
在线时间
273 小时
最后登录
2019-2-18
发表于 6 天前 | 显示全部楼层
谢谢楼主分享!
回复 支持 反对

使用道具 举报

影坛巨星

高清币
262
金钱
10686
鲜花
0
在线时间
3724 小时
最后登录
2019-2-18
发表于 6 天前 | 显示全部楼层

其实我一直觉得楼主的品味不错!呵呵!中国高清论坛太棒了!
回复 支持 反对

使用道具 举报

好莱坞明星

高清币
72
金钱
6570
鲜花
0
在线时间
1563 小时
最后登录
2019-2-19
发表于 6 天前 | 显示全部楼层

我看不错噢 谢谢楼主!中国高清论坛越来越好!
回复 支持 反对

使用道具 举报

永恒神话

高清币
43027
金钱
77016
鲜花
0
在线时间
1465 小时
最后登录
2019-2-19
发表于 6 天前 | 显示全部楼层

这个帖子不回对不起自己!我想我是一天也不能离开中国高清论坛
回复 支持 反对

使用道具 举报

永恒神话

高清币
43027
金钱
77016
鲜花
0
在线时间
1465 小时
最后登录
2019-2-19
发表于 6 天前 | 显示全部楼层

这东西我收了!谢谢楼主!中国高清论坛真好!
回复 支持 反对

使用道具 举报

superstar

高清币
4184
金钱
8712
鲜花
0
在线时间
1199 小时
最后登录
2019-2-19
发表于 6 天前 | 显示全部楼层
楼主发贴辛苦了,谢谢楼主分享!我觉得中国高清论坛是注册对了!
回复 支持 反对

使用道具 举报

金鸡奖主角

高清币
101
金钱
3486
鲜花
0
在线时间
439 小时
最后登录
2019-2-19
发表于 6 天前 | 显示全部楼层


高清资源下载区--720p、1080P高清MKV电影资源尽情下载
回复 支持 反对

使用道具 举报

懒得打字嘛,点击右侧快捷回复 【右侧内容,后台自定义】
您需要登录后才可以回帖 登录 | 立即注册

本版积分规则

QQ|手机版|小黑屋|中国高清论坛 ( 黔ICP备16007815号-1 )

GMT+8, 2019-2-19 03:22 , Processed in 0.107510 second(s), 29 queries .

Powered by Discuz! X3.4

© 2001-2017 Comsenz Inc.

快速回复 返回顶部 返回列表