请选择 进入手机版 | 继续访问电脑版

中国高清论坛

 找回密码
 立即注册
搜索
查看: 902|回复: 216

[惊悚片] 伦敦战场London.Fields.2018.720p.BluRay.x264-PSYCHD 4.38 GB

  [复制链接]

龙行天下

高清币
31244
金钱
6783
鲜花
20
在线时间
1391 小时
最后登录
2019-3-17
发表于 7 天前 | 显示全部楼层 |阅读模式
poster_opt.jpg
◎译  名   伦敦战场  
◎片  名   London Fields  
◎年  代   2018 
◎导  演   马提·卡伦 
◎编  剧   罗伯塔·汉利 / 马丁·艾米斯 
◎主  演    艾梅柏·希尔德 / 嘉玛·陈 / 卡拉·迪瓦伊 / 杰米·亚历山大 / 詹森·艾萨克 / 提奥·詹姆斯 / 约翰尼·德普 / 比利·鲍伯·松顿 / 吉姆·斯特吉斯 / 莉莉·科尔 / 艾德里安·帕默 / 艾米丽·金凯德·休斯 / 亨利·加勒特 / 迈克尔·谢弗 / 詹妮弗·米索妮 / 阿什克·阿赫塔尔 / 唐汉平 / 克雷格·加纳 / 丽塔-麦克唐纳丹帕 / 克里斯·雷曼 / 萨拉·比斯利 / 约翰·达根 / 伊恩·宗 / 安库塔·布雷班 
◎类  别   悬疑 / 惊悚 / 犯罪 
◎产  地    美国     
◎语  言   英语 
◎上映日期   2018-10-26(美国) 
◎片  长   118分钟     
◎豆瓣评分   5.3   
◎豆瓣链接   https://movie.douban.com/subject/3179698/ 
◎IMDb评分  4.4/10 from 1600 users Updated  
◎IMDb链接  https://www.imdb.com/title/tt1273221/  


◎简   介 · · · · · ·
    改编自英国小说家马丁艾米斯(Martin Amis)1989年作品《伦敦战场》。安柏赫德主演。
  以英国伦敦为背景,讲述一个具有预知未来能力的美女,她与3个不同的男人周旋,然而她已预知,其中一个人将会谋杀她……


◎标      签   美国 悬疑 犯罪 2018 惊悚 情色 剧情 文艺

◎标      题  London.Fields.2018.720p.BluRay.x264-PSYCHD 4.38 GB


Video

ID : 1
Format : AVC
Format/Info : Advanced Video Codec
Format profile : High@L4.1
Format settings : CABAC / 5 Ref Frames
Format settings, CABAC : Yes
Format settings, ReFrames : 5 frames
Codec ID : V_MPEG4/ISO/AVC
Duration : 1 h 47 min
Bit rate : 5 158 kb/s
Width : 1 280 pixels
Height : 536 pixels
Display aspect ratio : 2.40:1
Frame rate mode : Constant
Frame rate : 23.976 (24000/1001) FPS
Color space : YUV
Chroma subsampling : 4:2:0
Bit depth : 8 bits
Scan type : Progressive
Bits/(Pixel*Frame) : 0.314
Stream size : 3.88 GiB (89%)
Writing library : x264 core 157 r2935 545de2f
Encoding settings : cabac=1 / ref=5 / deblock=1:-3:-3 / analyse=0x3:0x113 / me=umh / subme=8 / psy=1 / psy_rd=1.00:0.00 / mixed_ref=1 / me_range=24 / chroma_me=1 / trellis=2 / 8x8dct=1 / cqm=0 / deadzone=21,11 / fast_pskip=1 / chroma_qp_offset=-2 / threads=17 / lookahead_threads=2 / sliced_threads=0 / nr=0 / decimate=1 / interlaced=0 / bluray_compat=0 / constrained_intra=0 / bframes=3 / b_pyramid=2 / b_adapt=2 / b_bias=0 / direct=3 / weightb=1 / open_gop=0 / weightp=2 / keyint=240 / keyint_min=24 / scenecut=40 / intra_refresh=0 / rc_lookahead=50 / rc=2pass / mbtree=1 / bitrate=5158 / ratetol=1.0 / qcomp=0.60 / qpmin=0 / qpmax=69 / qpstep=4 / cplxblur=20.0 / qblur=0.5 / ip_ratio=1.40 / aq=3:0.80
Default : Yes
Forced : No

Audio
ID : 2
Format : AC-3
Format/Info : Audio Coding 3
Commercial name : Dolby Digital
Codec ID : A_AC3
Duration : 1 h 47 min
Bit rate mode : Constant
Bit rate : 640 kb/s
Channel(s) : 6 channels
Channel layout : L R C LFE Ls Rs
Sampling rate : 48.0 kHz
Frame rate : 31.250 FPS (1536 SPF)
Bit depth : 16 bits
Compression mode : Lossy
Stream size : 494 MiB (11%)
Language : English
Service kind : Complete Main
Default : Yes
Forced : No

Text #1
ID : 3
Format : UTF-8
Codec ID : S_TEXT/UTF8
Codec ID/Info : UTF-8 Plain Text
Duration : 1 h 45 min
Bit rate : 53 b/s
Count of elements : 1372
Stream size : 41.6 KiB (0%)
Language : English
Default : No
Forced : No

Text #2
ID : 4
Format : UTF-8
Codec ID : S_TEXT/UTF8
Codec ID/Info : UTF-8 Plain Text
Duration : 1 h 46 min
Bit rate : 56 b/s
Count of elements : 1479
Stream size : 43.7 KiB (0%)
Title : SDH
Language : English
Default : No
Forced : No

Menu
00:00:00.000 : en:Chapter 01
00:15:57.498 : en:Chapter 02
00:28:36.006 : en:Chapter 03
00:41:57.890 : en:Chapter 04
00:53:24.326 : en:Chapter 05
01:07:31.589 : en:Chapter 06
01:20:45.632 : en:Chapter 07
01:42:51.332 : en:Chapter 08

77065629163476441448_thumb.jpg
游客,如果您要查看本帖隐藏内容请回复


回复

使用道具 举报

superstar

高清币
3803
金钱
9217
鲜花
0
在线时间
979 小时
最后登录
2019-3-19
发表于 7 天前 | 显示全部楼层
楼主发贴辛苦了,谢谢楼主分享!我觉得中国高清论坛是注册对了!
回复 支持 反对

使用道具 举报

金鸡奖主角

高清币
857
金钱
1905
鲜花
0
在线时间
172 小时
最后登录
2019-3-19
发表于 7 天前 | 显示全部楼层
楼主发贴辛苦了,谢谢楼主分享!我觉得中国高清论坛是注册对了!
回复 支持 反对

使用道具 举报

天王巨星

高清币
46
金钱
4120
鲜花
0
在线时间
560 小时
最后登录
2019-3-19
发表于 7 天前 | 显示全部楼层
楼主发贴辛苦了,谢谢楼主分享!我觉得中国高清论坛是注册对了!
回复 支持 反对

使用道具 举报

superstar

高清币
1009
金钱
14288
鲜花
0
在线时间
868 小时
最后登录
2019-3-18
发表于 7 天前 | 显示全部楼层

楼主太厉害了!楼主,电影应该很好看我觉得中国高清论坛真是个好地方!
回复 支持 反对

使用道具 举报

superstar

高清币
5517
金钱
10610
鲜花
0
在线时间
1278 小时
最后登录
2019-3-19
发表于 7 天前 | 显示全部楼层

我看不错噢 谢谢楼主!中国高清论坛越来越好!
回复 支持 反对

使用道具 举报

天王巨星

高清币
150
金钱
2602
鲜花
0
在线时间
440 小时
最后登录
2019-3-19
发表于 7 天前 | 显示全部楼层

既然你诚信诚意的推荐了,那我就勉为其难的看看吧!中国高清论坛不走平凡路。
回复 支持 反对

使用道具 举报

知名艺人

高清币
0
金钱
310
鲜花
0
在线时间
45 小时
最后登录
2019-3-19
发表于 7 天前 | 显示全部楼层
謝謝分享好資源
回复 支持 反对

使用道具 举报

天王巨星

高清币
92
金钱
2963
鲜花
0
在线时间
475 小时
最后登录
2019-3-19
发表于 7 天前 | 显示全部楼层
感谢楼主分享精彩电影
回复 支持 反对

使用道具 举报

懒得打字嘛,点击右侧快捷回复 【右侧内容,后台自定义】
您需要登录后才可以回帖 登录 | 立即注册

本版积分规则

QQ|手机版|小黑屋|中国高清论坛 ( 黔ICP备16007815号-1 )

GMT+8, 2019-3-20 05:36 , Processed in 0.094068 second(s), 29 queries .

Powered by Discuz! X3.4

© 2001-2017 Comsenz Inc.

快速回复 返回顶部 返回列表