请选择 进入手机版 | 继续访问电脑版

中国高清论坛

 找回密码
 立即注册
搜索
查看: 1203|回复: 400

[奇幻片] 神奇动物:格林德沃之罪[中字加长版]2018.ED.1080p.BluRay.x264.TrueHD-FGT 13.5GB

  [复制链接]

龙行天下

高清币
31243
金钱
6783
鲜花
20
在线时间
1391 小时
最后登录
2019-3-17
发表于 7 天前 | 显示全部楼层 |阅读模式
e9ad83bff29896d2a26c8e9e668d8793.jpg
◎译  名 神奇动物:格林德沃之罪 / Fantastic Beasts and Where to Find Them 2 / 怪兽与葛林戴华德之罪(港) / 怪兽与葛林戴华德的罪行(台) / 神奇动物2 / 神奇动物在哪里2 / 神奇动物在哪里2:格林德沃之罪
◎片  名 Fantastic Beasts: The Crimes of Grindelwald
◎年  代 2018
◎产  地 美国 / 英国
◎类  别 奇幻 / 冒险
◎语  言 英语
◎上映日期 2018-11-16(中国大陆/美国)
◎IMDb评分 6.8/10 from 118011 users
◎豆瓣评分 7.1/10 from 233576 users
◎片  长 134分钟
◎导  演 大卫·叶茨 David Yates
◎编  剧 J·K·罗琳 J.K. Rowling
◎主  演 埃迪·雷德梅恩 Eddie Redmayne
      凯瑟琳·沃特斯顿 Katherine Waterston
      约翰尼·德普 Johnny Depp
      裘德·洛 Jude Law
      埃兹拉·米勒 Ezra Miller
      丹·福勒 Dan Fogler
      艾莉森·萨多尔 Alison Sudol
      佐伊·克罗维兹 Zoë Kravitz
      卡勒姆·特纳 Callum Turner
      金秀贤 Soo-hyun Kim
      威廉·纳迪兰 William Nadylam
      凯文·格思里 Kevin Guthrie
      卡门·艾乔戈 Carmen Ejogo
      沃尔夫·罗特 Wolf Roth
      德里克·里德尔 Derek Riddell
      科内尔·约翰 Cornell John
      英格瓦·埃盖特·西古德松 Ingvar Eggert Siguresson
      波佩·科比-特曲 Poppy Corby-Tuech
      西蒙·米考克 Simon Meacock
      大卫·樱井 David Sakurai
      维多利亚·耶茨 Victoria Yeates
      奥拉维尔·达里·奥拉夫松 ólafur Darri ólafsson
      大卫·威尔莫特 David Wilmot
      艾德·高根 Ed Gaughan
      奥莉维亚·波皮卡 Olivia Popica
      Alfie Simmons
      菲奥娜·格拉斯科特 Fiona Glascott
      杰米·坎贝尔·鲍尔 Jamie Campbell Bower
      托比·瑞格波 Toby Regbo
      约书亚·谢伊 Joshua Shea
      布隆蒂斯·佐杜洛夫斯基 Brontis Jodorowsky
      杰西卡·威廉姆斯 Jessica Williams
      欧文·富尔 Olwen Fouere
      休·夸希 Hugh Quarshie
      塔希尔·布尔汉 Tahir Burhan
      迈克尔·科布 Michael Cobb
      萨比恩·克洛森 Sabine Crossen
      亚历珊德拉·福特 Alexandra Ford
      肖恩·吉斯灵厄姆 Sean Gislingham
      通恰伊·古奈什 Tuncay Gunes
      迈克尔·海登 Michael Haydon
      露丝·霍洛克斯 Ruth Horrocks
      泰·赫尔利 Ty Hurley
      纳西尔·贾玛 Nasir Jama
      卡米尔·雷米泽斯基 Kamil Lemieszewski
      迪诺·布加迪 Deano Bugatti


◎标  签 魔法世界 | 魔幻 | 魔法 | 英国 | 奇幻 | 2018 | 美国 | 冒险

◎简  介  

  虽然纽特(埃迪·雷德梅恩 Eddie Redmayne 饰)协助美国魔法部将邪恶的黑巫师格林德沃(约翰尼·德普 Johnny Depp 饰)捉拿归案,但最终格林德沃还是逃脱了禁锢,他来到了法国巴黎,一是为了集结信徒掀起革命,二十为了寻找同样藏匿在这里的克雷登斯(埃兹拉·米勒 Ezra Miller 饰),寄生在克雷登斯身上的默默然是帮助格林德沃实现野心的不可或缺的道具。
格林德沃的潜逃在整个魔法世界里都掀起了轩然大波,一时间草木皆兵。邓布利多(裘德·洛 Jude Law 饰)秘密的找到了纽特,希望他能够前往巴黎,先格林德沃一步找到克雷登斯。和纽特一起踏上巴黎之旅的,是麻鸡雅各布(丹·福格勒 Dan Fogler 饰),他此行的目的,是要找回先前因为吵架而来到巴黎投奔姐姐蒂娜(凯瑟琳·沃特森 Katherine Waterston 饰)的恋人奎妮(艾莉森·苏朵儿 Alison Sudol 饰)。

◎获奖情况  

  第72届英国电影学院奖(2019)
  电影奖 最佳艺术指导(提名) 斯图尔特·克莱格 / 安娜·平诺克
  电影奖 最佳特殊视觉效果(提名)

  第23届美国艺术指导工会奖(2019)
  电影奖 最佳幻想电影艺术指导(提名) 斯图尔特·克莱格

  第17届美国视觉效果协会奖(2019)
  最佳真人电影模拟动画效果(提名)

  第23届金卫星奖(2019)
  电影部门 最佳视觉效果(提名)
  电影部门 最佳美术指导(提名)
  电影部门 最佳服装设计(提名)

  第4届豆瓣电影年度榜单(2017)
  最值得期待的外语电影(提名)

Video
ID : 1
Format : AVC
Format/Info : Advanced Video Codec
Format profile : High@L4.1
Format settings : CABAC / 5 Ref Frames
Format settings, CABAC : Yes
Format settings, ReFrames : 5 frames
Codec ID : V_MPEG4/ISO/AVC
Duration : 2 h 20 min
Bit rate : 9 526 kb/s
Width : 1 920 pixels
Height : 800 pixels
Display aspect ratio : 2.40:1
Frame rate mode : Constant
Frame rate : 23.976 (24000/1001) FPS
Color space : YUV
Chroma subsampling : 4:2:0
Bit depth : 8 bits
Scan type : Progressive
Bits/(Pixel*Frame) : 0.259
Stream size : 9.38 GiB (69%)
Title : Fantastic.Beasts.The.Crimes.Of.Grindelwald.2018.EXTENDED.1080p.BluRay.x264.TrueHD.7.1.Atmos-FGT
Writing library : x264 core 157 r2935 545de2f
Encoding settings : cabac=1 / ref=5 / deblock=1:0:0 / analyse=0x3:0x113 / me=umh / subme=8 / psy=1 / psy_rd=1.00:0.00 / mixed_ref=1 / me_range=16 / chroma_me=1 / trellis=2 / 8x8dct=1 / cqm=0 / deadzone=21,11 / fast_pskip=0 / chroma_qp_offset=-2 / threads=12 / lookahead_threads=2 / sliced_threads=0 / nr=0 / decimate=1 / interlaced=0 / bluray_compat=0 / constrained_intra=0 / bframes=3 / b_pyramid=2 / b_adapt=1 / b_bias=0 / direct=1 / weightb=1 / open_gop=0 / weightp=2 / keyint=250 / keyint_min=23 / scenecut=40 / intra_refresh=0 / rc_lookahead=50 / rc=2pass / mbtree=1 / bitrate=9526 / ratetol=1.0 / qcomp=0.60 / qpmin=0 / qpmax=69 / qpstep=4 / cplxblur=20.0 / qblur=0.5 / ip_ratio=1.40 / aq=1:1.00
Default : Yes
Forced : No

Audio #1
ID : 2
Format : MLP FBA 16-ch
Format/Info : Meridian Lossless Packing FBA with 16-channel presentation
Commercial name : Dolby TrueHD with Dolby Atmos
Codec ID : A_TRUEHD
Duration : 2 h 20 min
Bit rate mode : Variable
Bit rate : 3 478 kb/s
Maximum bit rate : 4 953 kb/s
Channel(s) : 8 channels
Channel layout : L R C LFE Ls Rs Lb Rb
Sampling rate : 48.0 kHz
Frame rate : 1 200.000 FPS (40 SPF)
Compression mode : Lossless
Stream size : 3.43 GiB (25%)
Title : Fantastic.Beasts.The.Crimes.Of.Grindelwald.2018.EXTENDED.1080p.BluRay.x264.TrueHD.7.1.Atmos-FGT
Language : English
Default : Yes
Forced : No
Number of dynamic objects : 15
Bed channel count : 1 channel
Bed channel configuration : LFE

Audio #2
ID : 3
Format : AC-3
Format/Info : Audio Coding 3
Commercial name : Dolby Digital
Codec ID : A_AC3
Duration : 2 h 20 min
Bit rate mode : Constant
Bit rate : 448 kb/s
Channel(s) : 6 channels
Channel layout : L R C LFE Ls Rs
Sampling rate : 48.0 kHz
Frame rate : 31.250 FPS (1536 SPF)
Bit depth : 16 bits
Compression mode : Lossy
Stream size : 452 MiB (3%)
Title : Fantastic.Beasts.The.Crimes.Of.Grindelwald.2018.EXTENDED.1080p.BluRay.x264.TrueHD.7.1.Atmos-FGT
Language : English
Service kind : Complete Main
Default : No
Forced : No

Text #1
ID : 4
Format : UTF-8
Codec ID : S_TEXT/UTF8
Codec ID/Info : UTF-8 Plain Text
Duration : 2 h 10 min
Bit rate : 39 b/s
Count of elements : 1307
Stream size : 37.7 KiB (0%)
Title : English-SRT
Language : English
Default : Yes
Forced : No

Text #2
ID : 5
Format : UTF-8
Codec ID : S_TEXT/UTF8
Codec ID/Info : UTF-8 Plain Text
Duration : 2 h 11 min
Bit rate : 45 b/s
Count of elements : 1557
Stream size : 43.8 KiB (0%)
Title : English-SDH-SRT
Language : English
Default : No
Forced : No

Text #3
ID : 6
Format : PGS
Muxing mode : zlib
Codec ID : S_HDMV/PGS
Codec ID/Info : Picture based subtitle format used on BDs/HD-DVDs
Duration : 2 h 20 min
Bit rate : 26.8 kb/s
Count of elements : 3126
Stream size : 27.0 MiB (0%)
Title : English-PGS
Language : English
Default : No
Forced : No

Text #4
ID : 7
Format : PGS
Muxing mode : zlib
Codec ID : S_HDMV/PGS
Codec ID/Info : Picture based subtitle format used on BDs/HD-DVDs
Duration : 2 h 12 min
Bit rate : 29.4 kb/s
Count of elements : 2660
Stream size : 27.7 MiB (0%)
Title : German-PGS
Language : German
Default : No
Forced : No

Text #5
ID : 8
Format : PGS
Muxing mode : zlib
Codec ID : S_HDMV/PGS
Codec ID/Info : Picture based subtitle format used on BDs/HD-DVDs
Duration : 2 h 20 min
Bit rate : 25.8 kb/s
Count of elements : 3172
Stream size : 26.0 MiB (0%)
Title : Italian-PGS
Language : Italian
Default : No
Forced : No

Text #6
ID : 9
Format : PGS
Muxing mode : zlib
Codec ID : S_HDMV/PGS
Codec ID/Info : Picture based subtitle format used on BDs/HD-DVDs
Duration : 2 h 11 min
Bit rate : 23.5 kb/s
Count of elements : 2478
Stream size : 22.0 MiB (0%)
Title : Chinese-PGS
Language : Chinese
Default : No
Forced : No

Text #7
ID : 10
Format : PGS
Muxing mode : zlib
Codec ID : S_HDMV/PGS
Codec ID/Info : Picture based subtitle format used on BDs/HD-DVDs
Duration : 2 h 20 min
Bit rate : 23.8 kb/s
Count of elements : 2862
Stream size : 23.8 MiB (0%)
Title : Chinese-PGS
Language : Chinese
Default : No
Forced : No

Text #8
ID : 11
Format : PGS
Muxing mode : zlib
Codec ID : S_HDMV/PGS
Codec ID/Info : Picture based subtitle format used on BDs/HD-DVDs
Duration : 2 h 20 min
Bit rate : 22.8 kb/s
Count of elements : 2638
Stream size : 22.8 MiB (0%)
Title : Chinese-PGS
Language : Chinese
Default : No
Forced : No


Text #9
ID : 12
Format : PGS
Muxing mode : zlib
Codec ID : S_HDMV/PGS
Codec ID/Info : Picture based subtitle format used on BDs/HD-DVDs
Duration : 2 h 20 min
Bit rate : 13.4 kb/s
Count of elements : 2580
Stream size : 13.4 MiB (0%)
Title : Korean-PGS
Language : Korean
Default : No
Forced : No

Text #10
ID : 13
Format : PGS
Muxing mode : zlib
Codec ID : S_HDMV/PGS
Codec ID/Info : Picture based subtitle format used on BDs/HD-DVDs
Duration : 2 h 20 min
Bit rate : 13.0 kb/s
Count of elements : 2618
Stream size : 13.0 MiB (0%)
Title : Arabic-PGS
Language : Arabic
Default : No
Forced : No

Text #11
ID : 14
Format : PGS
Muxing mode : zlib
Codec ID : S_HDMV/PGS
Codec ID/Info : Picture based subtitle format used on BDs/HD-DVDs
Duration : 2 h 20 min
Bit rate : 19.8 kb/s
Count of elements : 2586
Stream size : 19.8 MiB (0%)
Title : Bulgarian-PGS
Language : Bulgarian
Default : No
Forced : No

Text #12
ID : 15
Format : PGS
Muxing mode : zlib
Codec ID : S_HDMV/PGS
Codec ID/Info : Picture based subtitle format used on BDs/HD-DVDs
Duration : 2 h 20 min
Bit rate : 22.4 kb/s
Count of elements : 2610
Stream size : 22.5 MiB (0%)
Title : Croatian-PGS
Language : Croatian
Default : No
Forced : No

Text #13
ID : 16
Format : PGS
Muxing mode : zlib
Codec ID : S_HDMV/PGS
Codec ID/Info : Picture based subtitle format used on BDs/HD-DVDs
Duration : 2 h 20 min
Bit rate : 20.8 kb/s
Count of elements : 2616
Stream size : 20.9 MiB (0%)
Title : Czech-PGS
Language : Czech
Default : No
Forced : No

Text #14
ID : 17
Format : PGS
Muxing mode : zlib
Codec ID : S_HDMV/PGS
Codec ID/Info : Picture based subtitle format used on BDs/HD-DVDs
Duration : 2 h 20 min
Bit rate : 21.8 kb/s
Count of elements : 2126
Stream size : 21.8 MiB (0%)
Title : Danish-PGS
Language : Danish
Default : No
Forced : No

Text #15
ID : 18
Format : PGS
Muxing mode : zlib
Codec ID : S_HDMV/PGS
Codec ID/Info : Picture based subtitle format used on BDs/HD-DVDs
Duration : 2 h 20 min
Bit rate : 23.4 kb/s
Count of elements : 2616
Stream size : 23.5 MiB (0%)
Title : Estonian-PGS
Language : Estonian
Default : No
Forced : No

Text #16
ID : 19
Format : PGS
Muxing mode : zlib
Codec ID : S_HDMV/PGS
Codec ID/Info : Picture based subtitle format used on BDs/HD-DVDs
Duration : 2 h 20 min
Bit rate : 19.0 kb/s
Count of elements : 2600
Stream size : 19.0 MiB (0%)
Title : Finnish-PGS
Language : Finnish
Default : No
Forced : No

Text #17
ID : 20
Format : PGS
Muxing mode : zlib
Codec ID : S_HDMV/PGS
Codec ID/Info : Picture based subtitle format used on BDs/HD-DVDs
Duration : 2 h 20 min
Bit rate : 22.6 kb/s
Count of elements : 2604
Stream size : 22.6 MiB (0%)
Title : Greek-PGS
Language : Greek
Default : No
Forced : No

Text #18
ID : 21
Format : PGS
Muxing mode : zlib
Codec ID : S_HDMV/PGS
Codec ID/Info : Picture based subtitle format used on BDs/HD-DVDs
Duration : 2 h 20 min
Bit rate : 17.7 kb/s
Count of elements : 2616
Stream size : 17.7 MiB (0%)
Title : Hebrew-PGS
Language : Hebrew
Default : No
Forced : No

Text #19
ID : 22
Format : PGS
Muxing mode : zlib
Codec ID : S_HDMV/PGS
Codec ID/Info : Picture based subtitle format used on BDs/HD-DVDs
Duration : 2 h 11 min
Bit rate : 24.8 kb/s
Count of elements : 2588
Stream size : 23.3 MiB (0%)
Title : Hungarian-PGS
Language : Hungarian
Default : No
Forced : No

Text #20
ID : 23
Format : PGS
Muxing mode : zlib
Codec ID : S_HDMV/PGS
Codec ID/Info : Picture based subtitle format used on BDs/HD-DVDs
Duration : 2 h 20 min
Bit rate : 20.9 kb/s
Count of elements : 2622
Stream size : 21.0 MiB (0%)
Title : Latvian-PGS
Language : Latvian
Default : No
Forced : No

Text #21
ID : 24
Format : PGS
Muxing mode : zlib
Codec ID : S_HDMV/PGS
Codec ID/Info : Picture based subtitle format used on BDs/HD-DVDs
Duration : 2 h 20 min
Bit rate : 21.9 kb/s
Count of elements : 2616
Stream size : 21.9 MiB (0%)
Title : Lithuanian-PGS
Language : Lithuanian
Default : No
Forced : No

Text #22
ID : 25
Format : PGS
Muxing mode : zlib
Codec ID : S_HDMV/PGS
Codec ID/Info : Picture based subtitle format used on BDs/HD-DVDs
Duration : 2 h 20 min
Bit rate : 21.6 kb/s
Count of elements : 2612
Stream size : 21.6 MiB (0%)
Title : Norwegian-PGS
Language : Norwegian
Default : No
Forced : No

Text #23
ID : 26
Format : PGS
Muxing mode : zlib
Codec ID : S_HDMV/PGS
Codec ID/Info : Picture based subtitle format used on BDs/HD-DVDs
Duration : 2 h 20 min
Bit rate : 22.7 kb/s
Count of elements : 2590
Stream size : 22.8 MiB (0%)
Title : Polish-PGS
Language : Polish
Default : No
Forced : No

Text #24
ID : 27
Format : PGS
Muxing mode : zlib
Codec ID : S_HDMV/PGS
Codec ID/Info : Picture based subtitle format used on BDs/HD-DVDs
Duration : 2 h 20 min
Bit rate : 22.8 kb/s
Count of elements : 2534
Stream size : 22.8 MiB (0%)
Title : Portuguese-PGS
Language : Portuguese
Default : No
Forced : No

Text #25
ID : 28
Format : PGS
Muxing mode : zlib
Codec ID : S_HDMV/PGS
Codec ID/Info : Picture based subtitle format used on BDs/HD-DVDs
Duration : 2 h 20 min
Bit rate : 21.1 kb/s
Count of elements : 2452
Stream size : 21.2 MiB (0%)
Title : Romanian-PGS
Language : Romanian
Default : No
Forced : No

Text #26
ID : 29
Format : PGS
Muxing mode : zlib
Codec ID : S_HDMV/PGS
Codec ID/Info : Picture based subtitle format used on BDs/HD-DVDs
Duration : 2 h 11 min
Bit rate : 25.0 kb/s
Count of elements : 2598
Stream size : 23.5 MiB (0%)
Title : Russian-PGS
Language : Russian
Default : No
Forced : No

Text #27
ID : 30
Format : PGS
Muxing mode : zlib
Codec ID : S_HDMV/PGS
Codec ID/Info : Picture based subtitle format used on BDs/HD-DVDs
Duration : 2 h 20 min
Bit rate : 18.2 kb/s
Count of elements : 2588
Stream size : 18.3 MiB (0%)
Title : Slovak-PGS
Language : Slovak
Default : No
Forced : No

Text #28
ID : 31
Format : PGS
Muxing mode : zlib
Codec ID : S_HDMV/PGS
Codec ID/Info : Picture based subtitle format used on BDs/HD-DVDs
Duration : 2 h 20 min
Bit rate : 19.1 kb/s
Count of elements : 2504
Stream size : 19.2 MiB (0%)
Title : Slovenian-PGS
Language : Slovenian
Default : No
Forced : No

Text #29
ID : 32
Format : PGS
Muxing mode : zlib
Codec ID : S_HDMV/PGS
Codec ID/Info : Picture based subtitle format used on BDs/HD-DVDs
Duration : 2 h 20 min
Bit rate : 21.9 kb/s
Count of elements : 2578
Stream size : 22.0 MiB (0%)
Title : Swedish-PGS
Language : Swedish
Default : No
Forced : No

Text #30
ID : 33
Format : PGS
Muxing mode : zlib
Codec ID : S_HDMV/PGS
Codec ID/Info : Picture based subtitle format used on BDs/HD-DVDs
Duration : 2 h 20 min
Bit rate : 23.7 kb/s
Count of elements : 2614
Stream size : 23.7 MiB (0%)
Title : Thai-PGS
Language : Thai
Default : No
Forced : No

Text #31
ID : 34
Format : PGS
Muxing mode : zlib
Codec ID : S_HDMV/PGS
Codec ID/Info : Picture based subtitle format used on BDs/HD-DVDs
Duration : 2 h 20 min
Bit rate : 21.4 kb/s
Count of elements : 2612
Stream size : 21.5 MiB (0%)
Title : Turkish-PGS
Language : Turkish
Default : No
Forced : No

Text #32
ID : 35
Format : PGS
Muxing mode : zlib
Codec ID : S_HDMV/PGS
Codec ID/Info : Picture based subtitle format used on BDs/HD-DVDs
Duration : 2 h 11 min
Bit rate : 16.5 kb/s
Count of elements : 2874
Stream size : 15.5 MiB (0%)
Title : Japanese-PGS
Language : Japanese
Default : No
Forced : No

Menu
00:00:00.000 : en:Chapter 01
00:07:14.934 : en:Chapter 02
00:22:19.713 : en:Chapter 03
00:34:26.856 : en:Chapter 04
00:47:43.402 : en:Chapter 05
00:57:10.760 : en:Chapter 06
01:05:06.110 : en:Chapter 07
01:18:47.305 : en:Chapter 08
01:27:32.038 : en:Chapter 09
01:41:58.529 : en:Chapter 10
01:50:17.110 : en:Chapter 11
01:58:50.665 : en:Chapter 12
02:07:40.110 : en:Chapter 13

游客,如果您要查看本帖隐藏内容请回复

回复

使用道具 举报

知名艺人

高清币
62
金钱
145
鲜花
0
在线时间
32 小时
最后登录
2019-3-19
发表于 7 天前 | 显示全部楼层

楼主太厉害了!楼主,电影应该很好看我觉得中国高清论坛真是个好地方!
回复 支持 1 反对 0

使用道具 举报

superstar

高清币
5193
金钱
9792
鲜花
0
在线时间
1183 小时
最后登录
2019-3-19
发表于 7 天前 | 显示全部楼层

楼主太厉害了!楼主,电影应该很好看我觉得中国高清论坛真是个好地方!
回复 支持 1 反对 0

使用道具 举报

人气偶像

高清币
556
金钱
831
鲜花
0
在线时间
77 小时
最后登录
2019-3-18
发表于 7 天前 | 显示全部楼层
感谢楼主的无私分享!感谢中国高清论坛
回复 支持 反对

使用道具 举报

永恒神话

高清币
9120
金钱
12466
鲜花
0
在线时间
1254 小时
最后登录
2019-3-19
发表于 7 天前 | 显示全部楼层
Thanks for sharing!


回复 支持 反对

使用道具 举报

好莱坞明星

高清币
1057
金钱
6729
鲜花
0
在线时间
2648 小时
最后登录
2019-3-19
发表于 7 天前 | 显示全部楼层

楼主太厉害了!楼主,电影应该很好看我觉得中国高清论坛真是个好地方!
回复 支持 反对

使用道具 举报

天王巨星

高清币
263
金钱
1766
鲜花
0
在线时间
422 小时
最后登录
2019-3-16
发表于 7 天前 | 显示全部楼层

这东西我收了!谢谢楼主!中国高清论坛真好!
回复 支持 反对

使用道具 举报

金鸡奖主角

高清币
674
金钱
4574
鲜花
0
在线时间
825 小时
最后登录
2019-3-18
发表于 7 天前 | 显示全部楼层

楼主,我太崇拜你了!我想我是一天也不能离开中国高清论坛
回复 支持 反对

使用道具 举报

天王巨星

高清币
10
金钱
3960
鲜花
0
在线时间
1337 小时
最后登录
2019-3-17
发表于 7 天前 | 显示全部楼层
看看加长版,谢谢提供
回复 支持 反对

使用道具 举报

永恒神话

高清币
8931
金钱
31174
鲜花
10
在线时间
1984 小时
最后登录
2019-3-19
发表于 7 天前 | 显示全部楼层

这个帖子不回对不起自己!我想我是一天也不能离开中国高清论坛
回复 支持 反对

使用道具 举报

金鸡奖主角

高清币
60
金钱
3842
鲜花
0
在线时间
1588 小时
最后登录
2019-3-19
发表于 7 天前 | 显示全部楼层
感谢楼主的无私分享!
回复 支持 反对

使用道具 举报

VIP贵宾

高清币
10852
金钱
61056
鲜花
0
在线时间
2297 小时
最后登录
2019-3-19
发表于 7 天前 | 显示全部楼层
楼主发贴辛苦了,谢谢楼主分享!我觉得中国高清论坛是注册对了!
回复 支持 反对

使用道具 举报

懒得打字嘛,点击右侧快捷回复 【右侧内容,后台自定义】
您需要登录后才可以回帖 登录 | 立即注册

本版积分规则

QQ|手机版|小黑屋|中国高清论坛 ( 黔ICP备16007815号-1 )

GMT+8, 2019-3-20 04:51 , Processed in 0.096119 second(s), 30 queries .

Powered by Discuz! X3.4

© 2001-2017 Comsenz Inc.

快速回复 返回顶部 返回列表