请选择 进入手机版 | 继续访问电脑版

中国高清论坛

 找回密码
 立即注册
搜索
查看: 1764|回复: 456

[动作片] 三方国界 [繁简中文] Triple.Frontier.2019.1080p.NF.WEBRip.DD5.1.x264-NTG

  [复制链接]

超级版主

高清币
15197
金钱
35503
鲜花
-88
在线时间
11209 小时
最后登录
2019-3-20
发表于 7 天前 | 显示全部楼层 |阅读模式


◎译  名 三方国界/三重国境/三重边界(台)
◎片  名 Triple Frontier
◎年  代 2019
◎国  家 美国
◎类  别 动作/冒险/犯罪
◎语  言 英语
◎IMDb评分 8.7/10 from 281 users
◎IMDB链接 https://www.imdb.com/title/tt1488606/[/colo]
◎片  长 2 h 5 min   
◎导  演 J·C·尚多尔 J.C. Chandor
◎主  演 本·阿弗莱克 Ben Affleck
       查理·汉纳姆 Charlie Hunnam
       佩德罗·帕斯卡 Pedro Pascal


◎简  介

  讲述五个朋友为扳倒一个大毒枭而再度联合起来,结果却导致一系列意想不到的后果。“三方国界”是指巴拉圭、阿根廷和巴西之间臭名昭著的边界地带,伊瓜苏河和巴拉那河在这里交汇,使这片区域难以监控,成为了有组织犯罪的庇护所。,

  1. Video
  2. ID : 1
  3. Format : AVC
  4. Format/Info : Advanced Video Codec
  5. Format profile : Main@L4
  6. Format settings : CABAC / 3 Ref Frames
  7. Format settings, CABAC : Yes
  8. Format settings, ReFrames : 3 frames
  9. Codec ID : V_MPEG4/ISO/AVC
  10. Duration : 2 h 5 min
  11. Bit rate mode : Variable
  12. Bit rate : 4 420 kb/s
  13. Maximum bit rate : 6 630 kb/s
  14. Width : 1 920 pixels
  15. Height : 1 080 pixels
  16. Display aspect ratio : 16:9
  17. Frame rate mode : Constant
  18. Frame rate : 24.000 FPS
  19. Color space : YUV
  20. Chroma subsampling : 4:2:0
  21. Bit depth : 8 bits
  22. Scan type : Progressive
  23. Bits/(Pixel*Frame) : 0.089
  24. Stream size : 3.86 GiB (87%)
  25. Writing library : x264 core 148 r2715 7e75228
  26. Encoding settings : cabac=1 / ref=3 / deblock=1:0:0 / analyse=0x1:0x111 / me=umh / subme=10 / psy=1 / psy_rd=1.00:0.00 / mixed_ref=1 / me_range=24 / chroma_me=1 / trellis=2 / 8x8dct=0 / cqm=0 / deadzone=21,11 / fast_pskip=1 / chroma_qp_offset=-2 / threads=8 / lookahead_threads=1 / sliced_threads=0 / nr=0 / decimate=1 / interlaced=0 / bluray_compat=0 / stitchable=1 / constrained_intra=0 / bframes=2 / b_pyramid=0 / b_adapt=2 / b_bias=0 / direct=3 / weightb=1 / open_gop=0 / weightp=2 / keyint=48 / keyint_min=25 / scenecut=0 / intra_refresh=0 / rc_lookahead=48 / rc=2pass / mbtree=1 / bitrate=4420 / ratetol=1.0 / qcomp=0.50 / qpmin=6 / qpmax=51 / qpstep=4 / cplxblur=20.0 / qblur=0.5 / vbv_maxrate=6630 / vbv_bufsize=8840 / nal_hrd=vbr / filler=0 / ip_ratio=1.40 / aq=1:1.00
  27. Language : English
  28. Default : Yes
  29. Forced : No

  30. Audio
  31. ID : 2
  32. Format : AC-3
  33. Format/Info : Audio Coding 3
  34. Commercial name : Dolby Digital
  35. Codec ID : A_AC3
  36. Duration : 2 h 5 min
  37. Bit rate mode : Constant
  38. Bit rate : 640 kb/s
  39. Channel(s) : 6 channels
  40. Channel layout : L R C LFE Ls Rs
  41. Sampling rate : 48.0 kHz
  42. Frame rate : 31.250 FPS (1536 SPF)
  43. Bit depth : 16 bits
  44. Compression mode : Lossy
  45. Stream size : 576 MiB (13%)
  46. Language : English
  47. Service kind : Complete Main
  48. Default : Yes
  49. Forced : No

  50. Text #1
  51. ID : 3
  52. Format : UTF-8
  53. Codec ID : S_TEXT/UTF8
  54. Codec ID/Info : UTF-8 Plain Text
  55. Duration : 1 h 47 min
  56. Bit rate : 5 b/s
  57. Count of elements : 168
  58. Stream size : 4.32 KiB (0%)
  59. Title : Forced
  60. Language : English
  61. Default : Yes
  62. Forced : Yes

  63. Text #2
  64. ID : 4
  65. Format : UTF-8
  66. Codec ID : S_TEXT/UTF8
  67. Codec ID/Info : UTF-8 Plain Text
  68. Duration : 1 h 56 min
  69. Bit rate : 54 b/s
  70. Count of elements : 1464
  71. Stream size : 46.6 KiB (0%)
  72. Language : English
  73. Default : No
  74. Forced : No

  75. Text #3
  76. ID : 5
  77. Format : UTF-8
  78. Codec ID : S_TEXT/UTF8
  79. Codec ID/Info : UTF-8 Plain Text
  80. Duration : 1 h 57 min
  81. Bit rate : 66 b/s
  82. Count of elements : 1725
  83. Stream size : 57.2 KiB (0%)
  84. Title : SDH
  85. Language : English
  86. Default : No
  87. Forced : No

  88. Text #4
  89. ID : 6
  90. Format : UTF-8
  91. Codec ID : S_TEXT/UTF8
  92. Codec ID/Info : UTF-8 Plain Text
  93. Duration : 1 h 57 min
  94. Bit rate : 91 b/s
  95. Count of elements : 1440
  96. Stream size : 78.4 KiB (0%)
  97. Language : Arabic
  98. Default : No
  99. Forced : No

  100. Text #5
  101. ID : 7
  102. Format : UTF-8
  103. Codec ID : S_TEXT/UTF8
  104. Codec ID/Info : UTF-8 Plain Text
  105. Duration : 1 h 57 min
  106. Bit rate : 40 b/s
  107. Count of elements : 1405
  108. Stream size : 34.5 KiB (0%)
  109. Language : Danish
  110. Default : No
  111. Forced : No

  112. Text #6
  113. ID : 8
  114. Format : UTF-8
  115. Codec ID : S_TEXT/UTF8
  116. Codec ID/Info : UTF-8 Plain Text
  117. Duration : 1 h 57 min
  118. Bit rate : 47 b/s
  119. Count of elements : 1417
  120. Stream size : 41.1 KiB (0%)
  121. Language : German
  122. Default : No
  123. Forced : No

  124. Text #7
  125. ID : 9
  126. Format : UTF-8
  127. Codec ID : S_TEXT/UTF8
  128. Codec ID/Info : UTF-8 Plain Text
  129. Duration : 1 h 57 min
  130. Bit rate : 76 b/s
  131. Count of elements : 1416
  132. Stream size : 65.3 KiB (0%)
  133. Language : Greek
  134. Default : No
  135. Forced : No

  136. Text #8
  137. ID : 10
  138. Format : UTF-8
  139. Codec ID : S_TEXT/UTF8
  140. Codec ID/Info : UTF-8 Plain Text
  141. Duration : 1 h 57 min
  142. Bit rate : 41 b/s
  143. Count of elements : 1239
  144. Stream size : 35.4 KiB (0%)
  145. Language : Spanish
  146. Default : No
  147. Forced : No

  148. Text #9
  149. ID : 11
  150. Format : UTF-8
  151. Codec ID : S_TEXT/UTF8
  152. Codec ID/Info : UTF-8 Plain Text
  153. Duration : 1 h 57 min
  154. Bit rate : 48 b/s
  155. Count of elements : 1433
  156. Stream size : 41.3 KiB (0%)
  157. Title : European
  158. Language : Spanish
  159. Default : No
  160. Forced : No

  161. Text #10
  162. ID : 12
  163. Format : UTF-8
  164. Codec ID : S_TEXT/UTF8
  165. Codec ID/Info : UTF-8 Plain Text
  166. Duration : 1 h 56 min
  167. Bit rate : 45 b/s
  168. Count of elements : 1178
  169. Stream size : 38.6 KiB (0%)
  170. Language : Finnish
  171. Default : No
  172. Forced : No

  173. Text #11
  174. ID : 13
  175. Format : UTF-8
  176. Codec ID : S_TEXT/UTF8
  177. Codec ID/Info : UTF-8 Plain Text
  178. Duration : 1 h 57 min
  179. Bit rate : 50 b/s
  180. Count of elements : 1429
  181. Stream size : 43.7 KiB (0%)
  182. Language : French
  183. Default : No
  184. Forced : No

  185. Text #12
  186. ID : 14
  187. Format : UTF-8
  188. Codec ID : S_TEXT/UTF8
  189. Codec ID/Info : UTF-8 Plain Text
  190. Duration : 1 h 57 min
  191. Bit rate : 74 b/s
  192. Count of elements : 1434
  193. Stream size : 64.0 KiB (0%)
  194. Language : Hebrew
  195. Default : No
  196. Forced : No

  197. Text #13
  198. ID : 15
  199. Format : UTF-8
  200. Codec ID : S_TEXT/UTF8
  201. Codec ID/Info : UTF-8 Plain Text
  202. Duration : 1 h 57 min
  203. Bit rate : 46 b/s
  204. Count of elements : 1442
  205. Stream size : 39.5 KiB (0%)
  206. Language : Indonesian
  207. Default : No
  208. Forced : No

  209. Text #14
  210. ID : 16
  211. Format : UTF-8
  212. Codec ID : S_TEXT/UTF8
  213. Codec ID/Info : UTF-8 Plain Text
  214. Duration : 1 h 57 min
  215. Bit rate : 48 b/s
  216. Count of elements : 1435
  217. Stream size : 41.6 KiB (0%)
  218. Language : Italian
  219. Default : No
  220. Forced : No

  221. Text #15
  222. ID : 17
  223. Format : UTF-8
  224. Codec ID : S_TEXT/UTF8
  225. Codec ID/Info : UTF-8 Plain Text
  226. Duration : 1 h 57 min
  227. Bit rate : 43 b/s
  228. Count of elements : 1421
  229. Stream size : 37.4 KiB (0%)
  230. Language : Japanese
  231. Default : No
  232. Forced : No

  233. Text #16
  234. ID : 18
  235. Format : UTF-8
  236. Codec ID : S_TEXT/UTF8
  237. Codec ID/Info : UTF-8 Plain Text
  238. Duration : 1 h 56 min
  239. Bit rate : 56 b/s
  240. Count of elements : 1437
  241. Stream size : 48.5 KiB (0%)
  242. Language : Korean
  243. Default : No
  244. Forced : No

  245. Text #17
  246. ID : 19
  247. Format : UTF-8
  248. Codec ID : S_TEXT/UTF8
  249. Codec ID/Info : UTF-8 Plain Text
  250. Duration : 1 h 57 min
  251. Bit rate : 40 b/s
  252. Count of elements : 1419
  253. Stream size : 34.7 KiB (0%)
  254. Language : Norwegian Bokmal
  255. Default : No
  256. Forced : No

  257. Text #18
  258. ID : 20
  259. Format : UTF-8
  260. Codec ID : S_TEXT/UTF8
  261. Codec ID/Info : UTF-8 Plain Text
  262. Duration : 1 h 57 min
  263. Bit rate : 41 b/s
  264. Count of elements : 1179
  265. Stream size : 35.3 KiB (0%)
  266. Language : Dutch
  267. Default : No
  268. Forced : No

  269. Text #19
  270. ID : 21
  271. Format : UTF-8
  272. Codec ID : S_TEXT/UTF8
  273. Codec ID/Info : UTF-8 Plain Text
  274. Duration : 1 h 57 min
  275. Bit rate : 44 b/s
  276. Count of elements : 1429
  277. Stream size : 37.9 KiB (0%)
  278. Language : Polish
  279. Default : No
  280. Forced : No

  281. Text #20
  282. ID : 22
  283. Format : UTF-8
  284. Codec ID : S_TEXT/UTF8
  285. Codec ID/Info : UTF-8 Plain Text
  286. Duration : 1 h 57 min
  287. Bit rate : 47 b/s
  288. Count of elements : 1443
  289. Stream size : 41.1 KiB (0%)
  290. Language : Portuguese
  291. Default : No
  292. Forced : No

  293. Text #21
  294. ID : 23
  295. Format : UTF-8
  296. Codec ID : S_TEXT/UTF8
  297. Codec ID/Info : UTF-8 Plain Text
  298. Duration : 1 h 57 min
  299. Bit rate : 49 b/s
  300. Count of elements : 1403
  301. Stream size : 42.3 KiB (0%)
  302. Title : Brazilian
  303. Language : Portuguese
  304. Default : No
  305. Forced : No

  306. Text #22
  307. ID : 24
  308. Format : UTF-8
  309. Codec ID : S_TEXT/UTF8
  310. Codec ID/Info : UTF-8 Plain Text
  311. Duration : 1 h 57 min
  312. Bit rate : 51 b/s
  313. Count of elements : 1373
  314. Stream size : 44.3 KiB (0%)
  315. Language : Romanian
  316. Default : No
  317. Forced : No

  318. Text #23
  319. ID : 25
  320. Format : UTF-8
  321. Codec ID : S_TEXT/UTF8
  322. Codec ID/Info : UTF-8 Plain Text
  323. Duration : 1 h 57 min
  324. Bit rate : 71 b/s
  325. Count of elements : 1397
  326. Stream size : 61.1 KiB (0%)
  327. Language : Russian
  328. Default : No
  329. Forced : No

  330. Text #24
  331. ID : 26
  332. Format : UTF-8
  333. Codec ID : S_TEXT/UTF8
  334. Codec ID/Info : UTF-8 Plain Text
  335. Duration : 1 h 57 min
  336. Bit rate : 44 b/s
  337. Count of elements : 1399
  338. Stream size : 38.2 KiB (0%)
  339. Language : Swedish
  340. Default : No
  341. Forced : No

  342. Text #25
  343. ID : 27
  344. Format : UTF-8
  345. Codec ID : S_TEXT/UTF8
  346. Codec ID/Info : UTF-8 Plain Text
  347. Duration : 1 h 57 min
  348. Bit rate : 118 b/s
  349. Count of elements : 1440
  350. Stream size : 101 KiB (0%)
  351. Language : Thai
  352. Default : No
  353. Forced : No

  354. Text #26
  355. ID : 28
  356. Format : UTF-8
  357. Codec ID : S_TEXT/UTF8
  358. Codec ID/Info : UTF-8 Plain Text
  359. Duration : 1 h 57 min
  360. Bit rate : 49 b/s
  361. Count of elements : 1437
  362. Stream size : 42.5 KiB (0%)
  363. Language : Turkish
  364. Default : No
  365. Forced : No

  366. Text #27
  367. ID : 29
  368. Format : UTF-8
  369. Codec ID : S_TEXT/UTF8
  370. Codec ID/Info : UTF-8 Plain Text
  371. Duration : 1 h 57 min
  372. Bit rate : 48 b/s
  373. Count of elements : 1435
  374. Stream size : 41.5 KiB (0%)
  375. Title : Simplified
  376. Language : Chinese
  377. Default : No
  378. Forced : No

  379. Text #28
  380. ID : 30
  381. Format : UTF-8
  382. Codec ID : S_TEXT/UTF8
  383. Codec ID/Info : UTF-8 Plain Text
  384. Duration : 1 h 57 min
  385. Bit rate : 48 b/s
  386. Count of elements : 1445
  387. Stream size : 41.5 KiB (0%)
  388. Title : Traditional
  389. Language : Chinese
  390. Default : No
  391. Forced : No
复制代码







游客,如果您要查看本帖隐藏内容请回复

回复

使用道具 举报

跑龙套

高清币
17
金钱
91
鲜花
0
在线时间
13 小时
最后登录
2019-3-13
发表于 7 天前 | 显示全部楼层

既然你诚信诚意的推荐了,那我就勉为其难的看看吧!中国高清论坛不走平凡路。
回复 支持 1 反对 0

使用道具 举报

金鸡奖主角

高清币
1676
金钱
3754
鲜花
0
在线时间
458 小时
最后登录
2019-3-20
发表于 7 天前 | 显示全部楼层

楼主太厉害了!楼主,电影应该很好看我觉得中国高清论坛真是个好地方!
回复 支持 1 反对 0

使用道具 举报

人气偶像

高清币
0
金钱
1946
鲜花
0
在线时间
411 小时
最后登录
2019-3-18
发表于 7 天前 | 显示全部楼层


这东西我收了!谢谢楼主!中国高清论坛真好!
回复 支持 1 反对 0

使用道具 举报

人气偶像

高清币
349
金钱
1014
鲜花
0
在线时间
367 小时
最后登录
2019-3-19
发表于 7 天前 | 显示全部楼层

既然你诚信诚意的推荐了,那我就勉为其难的看看吧!中国高清论坛不走平凡路。
回复 支持 1 反对 0

使用道具 举报

金鸡奖主角

高清币
597
金钱
4113
鲜花
0
在线时间
479 小时
最后登录
2019-3-19
发表于 7 天前 | 显示全部楼层
楼主发贴辛苦了,谢谢楼主分享!我觉得中国高清论坛是注册对了!
回复 支持 反对

使用道具 举报

金鸡奖主角

高清币
96
金钱
3836
鲜花
0
在线时间
572 小时
最后登录
2019-3-19
发表于 7 天前 | 显示全部楼层

这东西我收了!谢谢楼主!中国高清论坛真好!
回复 支持 反对

使用道具 举报

金鸡奖主角

高清币
275
金钱
4091
鲜花
0
在线时间
419 小时
最后登录
2019-3-19
发表于 7 天前 | 显示全部楼层
这东西我收了!谢谢楼主!中国高清论坛真好!
回复 支持 反对

使用道具 举报

永恒神话

高清币
8697
金钱
11832
鲜花
0
在线时间
1033 小时
最后登录
2019-3-20
发表于 7 天前 | 显示全部楼层
楼主发贴辛苦了,谢谢楼主分享!我觉得中国高清论坛是注册对了!
回复 支持 反对

使用道具 举报

知名艺人

高清币
20
金钱
215
鲜花
0
在线时间
44 小时
最后登录
2019-3-18
发表于 7 天前 | 显示全部楼层
好剧,下载来看看

回复 支持 反对

使用道具 举报

人气偶像

高清币
6
金钱
790
鲜花
0
在线时间
138 小时
最后登录
2019-3-19
发表于 7 天前 | 显示全部楼层

楼主太厉害了!楼主,电影应该很好看我觉得中国高清论坛真是个好地方!
回复 支持 反对

使用道具 举报

金鸡奖主角

高清币
539
金钱
3444
鲜花
0
在线时间
430 小时
最后登录
2019-3-19
发表于 7 天前 | 显示全部楼层
楼主发贴辛苦了,谢谢楼主分享!我觉得中国高清论坛是注册对了!
回复 支持 反对

使用道具 举报

知名艺人

高清币
22
金钱
225
鲜花
0
在线时间
31 小时
最后登录
2019-3-19
发表于 7 天前 | 显示全部楼层
感谢分享精彩好电影!!!!
回复 支持 反对

使用道具 举报

懒得打字嘛,点击右侧快捷回复 【右侧内容,后台自定义】
您需要登录后才可以回帖 登录 | 立即注册

本版积分规则

QQ|手机版|小黑屋|中国高清论坛 ( 黔ICP备16007815号-1 )

GMT+8, 2019-3-20 04:54 , Processed in 0.108466 second(s), 30 queries .

Powered by Discuz! X3.4

© 2001-2017 Comsenz Inc.

快速回复 返回顶部 返回列表