请选择 进入手机版 | 继续访问电脑版

中国高清论坛

 找回密码
 立即注册
搜索
查看: 185|回复: 47

[MV] Avi_1080P_性感美女车模DJ视频_ 谢谢你的爱【粤语】

[复制链接]

龙行天下

高清币
31244
金钱
6783
鲜花
20
在线时间
1391 小时
最后登录
2019-3-17
发表于 6 天前 | 显示全部楼层 |阅读模式

bandicam 2019-03-14 13-12-42-422.jpg
General
Complete name                  : Avi_1080P_性感美女车模DJ视频_ 谢谢你的爱【粤语】.avi
Format                         : AVI
Format/Info                    : Audio Video Interleave
File size                      : 583 MiB
Duration                       : 6 min 16 s
Overall bit rate               : 13.0 Mb/s
Writing application            : MEncoder SVN-r33883(20110719-gcc4.5.2)
Writing library                : MPlayer


Video
ID                             : 0
Format                         : MPEG-4 Visual
Format profile                 : Advanced Simple@L5
Format settings                : BVOP2
Format settings, BVOP          : 2
Format settings, QPel          : No
Format settings, GMC           : No warppoints
Format settings, Matrix        : Default (H.263)
Codec ID                       : XVID
Codec ID/Hint                  : XviD
Duration                       : 6 min 16 s
Bit rate                       : 12.7 Mb/s
Width                          : 1 920 pixels
Height                         : 1 080 pixels
Display aspect ratio           : 16:9
Frame rate                     : 30.000 FPS
Color space                    : YUV
Chroma subsampling             : 4:2:0
Bit depth                      : 8 bits
Scan type                      : Progressive
Compression mode               : Lossy
Bits/(Pixel*Frame)             : 0.203
Stream size                    : 568 MiB (97%)
Writing library                : XviD 1.2.1 (UTC 2008-12-04)


Audio
ID                             : 1
Format                         : MPEG Audio
Format version                 : Version 1
Format profile                 : Layer 3
Format settings                : Joint stereo
Codec ID                       : 55
Codec ID/Hint                  : MP3
Duration                       : 6 min 16 s
Bit rate mode                  : Constant
Bit rate                       : 320 kb/s
Channel(s)                     : 2 channels
Sampling rate                  : 44.1 kHz
Compression mode               : Lossy
Delay relative to video        : 33 ms
Stream size                    : 14.4 MiB (2%)
Alignment                      : Aligned on interleaves
Interleave, duration           : 26  ms (0.78 video frame)
Interleave, preload duration   : 522  ms
Writing library                : LAME3.98.4
Avi_1080P_性感美女车模DJ视频_ 谢谢你的爱【粤语】.avi_20190314_131300.530.jpg Avi_1080P_性感美女车模DJ视频_ 谢谢你的爱【粤语】.avi_20190314_131324.345.jpg Avi_1080P_性感美女写真视频DJ舞曲_下辈子做你的手机dj-龙奔(DJ黑狼Remix) - [HD].avi.jpg
游客,如果您要查看本帖隐藏内容请回复

回复

使用道具 举报

高清发布组

高清币
79074
金钱
6392
鲜花
10
在线时间
1463 小时
最后登录
2019-3-14
发表于 6 天前 | 显示全部楼层

楼主太厉害了!楼主,电影应该很好看我觉得中国高清论坛真是个好地方!
回复 支持 反对

使用道具 举报

天王巨星

高清币
6
金钱
1825
鲜花
0
在线时间
452 小时
最后登录
2019-3-19
发表于 6 天前 | 显示全部楼层
BUCUO dddddddddddddddddddddddddddd
回复 支持 反对

使用道具 举报

永恒神话

高清币
8931
金钱
31174
鲜花
10
在线时间
1984 小时
最后登录
2019-3-19
发表于 6 天前 | 显示全部楼层

这个帖子不回对不起自己!我想我是一天也不能离开中国高清论坛
回复 支持 反对

使用道具 举报

永恒神话

高清币
14337
金钱
21823
鲜花
0
在线时间
547 小时
最后登录
2019-3-19
发表于 6 天前 | 显示全部楼层
楼主发贴辛苦了,谢谢楼主分享!我觉得中国高清论坛是注册对了!
回复 支持 反对

使用道具 举报

天王巨星

高清币
242
金钱
1863
鲜花
0
在线时间
246 小时
最后登录
2019-3-19
发表于 6 天前 | 显示全部楼层
谢谢楼主分享
回复 支持 反对

使用道具 举报

天王巨星

高清币
46
金钱
1877
鲜花
0
在线时间
268 小时
最后登录
2019-3-17
发表于 6 天前 | 显示全部楼层
楼主发贴辛苦了,谢谢楼主分享!我觉得中国高清论坛是注册对了!
回复 支持 反对

使用道具 举报

superstar

高清币
1343
金钱
18154
鲜花
0
在线时间
1545 小时
最后登录
2019-3-20
发表于 6 天前 | 显示全部楼层

楼主太厉害了!楼主,电影应该很好看我觉得中国高清论坛真是个好地方!
回复 支持 反对

使用道具 举报

人气偶像

高清币
127
金钱
713
鲜花
0
在线时间
84 小时
最后登录
2019-3-18
发表于 6 天前 | 显示全部楼层

这东西我收了!谢谢楼主!中国高清论坛真好!
回复 支持 反对

使用道具 举报

懒得打字嘛,点击右侧快捷回复 【右侧内容,后台自定义】
您需要登录后才可以回帖 登录 | 立即注册

本版积分规则

QQ|手机版|小黑屋|中国高清论坛 ( 黔ICP备16007815号-1 )

GMT+8, 2019-3-20 05:18 , Processed in 0.131645 second(s), 30 queries .

Powered by Discuz! X3.4

© 2001-2017 Comsenz Inc.

快速回复 返回顶部 返回列表