请选择 进入手机版 | 继续访问电脑版

中国高清论坛

 找回密码
 立即注册
搜索
查看: 864|回复: 256

[动作片] 威士忌劫匪 The.Whiskey.Bandit.2018.TRUEFRENCH.1080p.WEB.x264-STVFRV 3.30 GiB

  [复制链接]

超级版主

高清币
15197
金钱
35503
鲜花
-88
在线时间
11209 小时
最后登录
2019-3-20
发表于 6 天前 | 显示全部楼层 |阅读模式


◎译  名 威士忌劫匪
◎片  名 The Whiskey Bandit/The Whisky Robber/A Viszkis
◎年  代 2017
◎国  家 匈牙利
◎类  别 动作/冒险/剧情/犯罪
◎语  言 法语
◎IMDb评分 7.6/10 from 5,919 users
◎IMDB链接 https://www.imdb.com/title/tt6811018//[/colo]
◎片  长 2 h 2 min
◎导  演 Aleksandr Boguslavskiy
       Francesco Cinquemani
◎主  演 Bence Szalay
       佐尔坦·施奈德
       Viktor Klem
       Piroska Móga
       Gy?rgy Gazsó


◎简  介

  曾经在20世纪90年代以“威士忌大盗”绰号而名声大噪的阿提拉·艾姆布拉斯,在1993至1999年间曾先后抢劫28家银行、邮局和旅行社,抢劫金额累计达到1.96亿福林(约4000玩人民币)。艾姆布拉斯被冠以“威士忌大盗”的绰号,是因为他在抢劫行动前,有在犯案地点附近的酒吧里喝威士忌的习惯。 他告诉人民自由报,他将不再喝威士忌,不冒不必要的险,他希望过平静的生活。本片就是他的真实改编……

  1. General
  2. Unique ID                      : 237140360882366102785944812441114109532 (0xB267927C0069A2A382B989E9475DE65C)
  3. Complete name                  : D:\迅雷下载\[ www.Torrent9.uno ] The.Whiskey.Bandit.2018.TRUEFRENCH.1080p.WEB-DL.x264-STVFRV.mkv
  4. Format                         : Matroska
  5. Format version                 : Version 2
  6. File size                      : 3.30 GiB
  7. Duration                       : 2 h 2 min
  8. Overall bit rate               : 3 866 kb/s
  9. Movie name                     : STVFRV
  10. Encoded date                   : UTC 2019-03-14 00:19:45
  11. Writing application            : mkvmerge v5.2.0 ('I can't explain') built on Dec 18 2011 18:12:03
  12. Writing library                : libebml v1.2.3 + libmatroska v1.3.0
  13. FileExtension_Invalid          : mkv mk3d mka mks

  14. Video
  15. ID                             : 1
  16. Format                         : AVC
  17. Format/Info                    : Advanced Video Codec
  18. Format profile                 : High@L4.1
  19. Format settings                : CABAC / 2 Ref Frames
  20. Format settings, CABAC         : Yes
  21. Format settings, ReFrames      : 2 frames
  22. Format settings, GOP           : M=3, N=24
  23. Muxing mode                    : Header stripping
  24. Codec ID                       : V_MPEG4/ISO/AVC
  25. Duration                       : 2 h 2 min
  26. Bit rate                       : 3 668 kb/s
  27. Width                          : 1 920 pixels
  28. Height                         : 796 pixels
  29. Display aspect ratio           : 2.40:1
  30. Frame rate mode                : Constant
  31. Frame rate                     : 25.000 FPS
  32. Original frame rate            : 24.000 FPS
  33. Color space                    : YUV
  34. Chroma subsampling             : 4:2:0
  35. Bit depth                      : 8 bits
  36. Scan type                      : Progressive
  37. Bits/(Pixel*Frame)             : 0.096
  38. Stream size                    : 3.13 GiB (95%)
  39. Writing library                : x264 core 142
  40. Encoding settings              : cabac=1 / ref=1 / deblock=1:-1:-1 / analyse=0x3:0 / me=hex / subme=5 / psy=0 / mixed_ref=0 / me_range=16 / chroma_me=1 / trellis=0 / 8x8dct=1 / cqm=0 / deadzone=21,11 / fast_pskip=1 / chroma_qp_offset=0 / threads=8 / lookahead_threads=2 / sliced_threads=0 / nr=0 / decimate=1 / interlaced=0 / bluray_compat=0 / constrained_intra=0 / bframes=2 / b_pyramid=0 / b_adapt=1 / b_bias=0 / direct=1 / weightb=1 / open_gop=0 / weightp=0 / keyint=24 / keyint_min=13 / scenecut=40 / intra_refresh=0 / rc=abr / mbtree=0 / bitrate=3668 / ratetol=1.0 / qcomp=0.60 / qpmin=0 / qpmax=69 / qpstep=4 / ip_ratio=1.40 / pb_ratio=1.30 / aq=1:1.00
  41. Language                       : French
  42. Default                        : Yes
  43. Forced                         : No
  44. Color range                    : Limited
  45. Color primaries                : BT.709
  46. Transfer characteristics       : BT.709
  47. Matrix coefficients            : BT.709

  48. Audio
  49. ID                             : 2
  50. Format                         : MPEG Audio
  51. Format version                 : Version 1
  52. Format profile                 : Layer 3
  53. Muxing mode                    : Header stripping
  54. Codec ID                       : A_MPEG/L3
  55. Codec ID/Hint                  : MP3
  56. Duration                       : 2 h 2 min
  57. Bit rate mode                  : Constant
  58. Bit rate                       : 128 kb/s
  59. Channel(s)                     : 2 channels
  60. Sampling rate                  : 48.0 kHz
  61. Compression mode               : Lossy
  62. Stream size                    : 112 MiB (3%)
  63. Language                       : French
  64. Default                        : Yes
  65. Forced                         : No

复制代码

游客,如果您要查看本帖隐藏内容请回复
回复

使用道具 举报

superstar

高清币
4404
金钱
9000
鲜花
0
在线时间
1220 小时
最后登录
2019-3-20
发表于 5 天前 | 显示全部楼层

我看不错噢 谢谢楼主!中国高清论坛越来越好!
回复 支持 1 反对 0

使用道具 举报

superstar

高清币
1343
金钱
18154
鲜花
0
在线时间
1545 小时
最后登录
2019-3-20
发表于 5 天前 | 显示全部楼层

楼主太厉害了!楼主,电影应该很好看我觉得中国高清论坛真是个好地方!
回复 支持 1 反对 0

使用道具 举报

跑龙套

高清币
5
金钱
7
鲜花
0
在线时间
0 小时
最后登录
2019-3-15
发表于 5 天前 | 显示全部楼层
少女汁源 很多资深老司机都在这 复制打开 :www.93p.xyz
回复 支持 1 反对 0

使用道具 举报

影坛巨星

高清币
2602
金钱
11687
鲜花
0
在线时间
1355 小时
最后登录
2019-3-20
发表于 6 天前 | 显示全部楼层

这东西我收了!谢谢楼主!中国高清论坛真好!
回复 支持 反对

使用道具 举报

影坛巨星

高清币
248
金钱
10764
鲜花
0
在线时间
3807 小时
最后登录
2019-3-20
发表于 6 天前 | 显示全部楼层

既然你诚信诚意的推荐了,那我就勉为其难的看看吧!中国高清论坛不走平凡路。
回复 支持 反对

使用道具 举报

人气偶像

高清币
114
金钱
1797
鲜花
0
在线时间
652 小时
最后登录
2019-3-19
发表于 6 天前 | 显示全部楼层

楼主太厉害了!楼主,电影应该很好看我觉得中国高清论坛真是个好地方!
回复 支持 反对

使用道具 举报

永恒神话

高清币
7037
金钱
17969
鲜花
0
在线时间
3841 小时
最后登录
2019-3-19
发表于 6 天前 | 显示全部楼层
楼主发贴辛苦了,谢谢楼主分享!我觉得中国高清论坛是注册对了!
回复 支持 反对

使用道具 举报

永恒神话

高清币
6525
金钱
10217
鲜花
0
在线时间
954 小时
最后登录
2019-3-20
发表于 6 天前 | 显示全部楼层
谢谢楼主分享!
回复 支持 反对

使用道具 举报

永恒神话

高清币
6525
金钱
10217
鲜花
0
在线时间
954 小时
最后登录
2019-3-20
发表于 6 天前 | 显示全部楼层

谢谢楼主分享!
回复 支持 反对

使用道具 举报

永恒神话

高清币
14234
金钱
20523
鲜花
0
在线时间
1374 小时
最后登录
2019-3-16
发表于 6 天前 | 显示全部楼层

其实我一直觉得楼主的品味不错!呵呵!中国高清论坛太棒了!
回复 支持 反对

使用道具 举报

金鸡奖主角

高清币
87
金钱
5252
鲜花
0
在线时间
480 小时
最后登录
2019-3-19
发表于 6 天前 | 显示全部楼层

这个帖子不回对不起自己!我想我是一天也不能离开中国高清论坛
回复 支持 反对

使用道具 举报

天王巨星

高清币
27
金钱
2427
鲜花
0
在线时间
459 小时
最后登录
2019-3-19
发表于 6 天前 | 显示全部楼层
楼主发贴辛苦了,谢谢楼主分享!我觉得中国高清论坛是注册对了!
回复 支持 反对

使用道具 举报

懒得打字嘛,点击右侧快捷回复 【右侧内容,后台自定义】
您需要登录后才可以回帖 登录 | 立即注册

本版积分规则

QQ|手机版|小黑屋|中国高清论坛 ( 黔ICP备16007815号-1 )

GMT+8, 2019-3-20 04:42 , Processed in 0.106481 second(s), 30 queries .

Powered by Discuz! X3.4

© 2001-2017 Comsenz Inc.

快速回复 返回顶部 返回列表