请选择 进入手机版 | 继续访问电脑版

中国高清论坛

 找回密码
 立即注册
搜索
查看: 978|回复: 198

[喜剧片] 银魂2[内封中字]Gintama.2.2018.720p.BluRay.x264-WiKi 5.54GB

  [复制链接]

龙行天下

高清币
33077
金钱
7152
鲜花
30
在线时间
1446 小时
最后登录
2019-4-12
发表于 2019-2-4 00:43:13 | 显示全部楼层 |阅读模式
poster_opt.jpg
◎译  名 银魂2 / Gintama 2 / 规定就是为了被打破而存在的 / 银魂2:规则是用来打破的
◎片  名 銀魂2 掟は破るためにこそある
◎年  代 2018
◎产  地 日本
◎类  别 喜剧 / 动作 / 冒险
◎语  言 日语
◎上映日期 2018-08-17(日本)
◎IMDb评分 6.8/10 from 312 users
◎IMDb链接 http://www.imdb.com/title/tt7639528
◎豆瓣评分 7.5/10 from 11574 users
◎豆瓣链接 https://movie.douban.com/subject/27199577/
◎片  长 135分钟
◎导  演 福田雄一 Yûichi Fukuda
◎编  剧 福田雄一 Yûichi Fukuda
◎主  演 小栗旬 Shun Oguri
      菅田将晖 Masaki Suda
      桥本环奈 Kanna Hashimoto
      柳乐优弥 Yûya Yagira
      吉泽亮 Yoshizawa Ryo
      三浦春马 Haruma Miura
      洼田正孝 Masataka Kubota
      室毅 Tsuyoshi Muro
      长泽雅美 Masami Nagasawa
      冈田将生 Masaki Okada
      木村绿子 Midoriko Kimura
      佐藤二朗 Jirô Satô
      村勘九郎 Kantarou Nakamura
      堂本刚 Tsuyoshi Dômoto
      堤真一 Shin'ichi Tsutsumi
      胜地凉 Ryo Katsuji
      夏菜 Natsuna
      户塚纯贵 Junki Tozuka
      立木文彦 Fumihiko Tachiki

◎简  介  



  电影以架空的江户时代末期天人来袭为背景,讲述主人公坂田银时坚守侍魂,经营万事屋,与搭档志村新八和神乐一起解决各种事件的故事。因为欠钱交不起房租,万事屋的三个人开始打工,他们还在打工的地方遇到将军大人,另一方面真选组内部发生问题,银时面临最大的危机。

Video
ID : 1
Format : AVC
Format/Info : Advanced Video Codec
Format profile : High@L4.1
Format settings : CABAC / 9 Ref Frames
Format settings, CABAC : Yes
Format settings, ReFrames : 9 frames
Codec ID : V_MPEG4/ISO/AVC
Duration : 2 h 14 min
Bit rate : 5 220 kb/s
Width : 1 280 pixels
Height : 720 pixels
Display aspect ratio : 16:9
Frame rate mode : Constant
Frame rate : 23.976 (24000/1001) FPS
Color space : YUV
Chroma subsampling : 4:2:0
Bit depth : 8 bits
Scan type : Progressive
Bits/(Pixel*Frame) : 0.236
Stream size : 4.91 GiB (89%)
Title : x264_L4.1 @ 5219 Kbps (crf 18)
Writing library : x264 core 129 r2245+704+36 8e61944 tMod+MixAQ [8-bit@4:2:0 X86_64]
Encoding settings : cabac=1 / ref=9 / deblock=1:-3:-3 / analyse=0x3:0x133 / me=umh / subme=11 / psy=1 / fade_compensate=0.00 / psy_rd=1.05:0.10 / mixed_ref=1 / me_range=32 / chroma_me=1 / trellis=2 / 8x8dct=1 / cqm=0 / deadzone=21,11 / fast_pskip=0 / chroma_qp_offset=-3 / threads=12 / lookahead_threads=2 / sliced_threads=0 / nr=0 / decimate=1 / interlaced=0 / bluray_compat=0 / constrained_intra=0 / fgo=0 / bframes=10 / b_pyramid=2 / b_adapt=2 / b_bias=0 / direct=3 / weightb=1 / open_gop=0 / weightp=2 / keyint=250 / keyint_min=23 / scenecut=40 / intra_refresh=0 / rc=crf / mbtree=0 / crf=18.0000 / qcomp=0.70 / qpmin=0 / qpmax=69 / qpstep=4 / ip_ratio=1.25 / pb_ratio=1.15 / aq=1 / aq-strength=0.70 / aq-sensitivity=10.00 / aq-ifactor=1.00 / aq-pfactor=1.00 / aq-bfactor=1.00 / aq2=0
Language : Japanese
Default : Yes
Forced : No


Audio
ID : 2
Format : AC-3
Format/Info : Audio Coding 3
Commercial name : Dolby Digital
Codec ID : A_AC3
Duration : 2 h 14 min
Bit rate mode : Constant
Bit rate : 640 kb/s
Channel(s) : 6 channels
Channel layout : L R C LFE Ls Rs
Sampling rate : 48.0 kHz
Frame rate : 31.250 FPS (1536 SPF)
Bit depth : 16 bits
Compression mode : Lossy
Stream size : 617 MiB (11%)
Title : Japanese DD 5.1 @ 540 Kbps
Language : Japanese
Service kind : Complete Main
Default : Yes
Forced : No


Text #1
ID : 3
Format : PGS
Muxing mode : zlib
Codec ID : S_HDMV/PGS
Codec ID/Info : Picture based subtitle format used on BDs/HD-DVDs
Duration : 2 h 13 min
Bit rate : 56.4 kb/s
Count of elements : 4363
Stream size : 54.1 MiB (1%)
Title : Japanese (PGS)
Language : Japanese
Default : No
Forced : No


Text #2
ID : 4
Format : UTF-8
Codec ID : S_TEXT/UTF8
Codec ID/Info : UTF-8 Plain Text
Duration : 2 h 13 min
Bit rate : 53 b/s
Count of elements : 1985
Stream size : 52.3 KiB (0%)
Title : Simplified Chinese (TTG-R3)
Language : Chinese
Default : Yes
Forced : No


Text #3
ID : 5
Format : UTF-8
Codec ID : S_TEXT/UTF8
Codec ID/Info : UTF-8 Plain Text
Duration : 2 h 13 min
Bit rate : 53 b/s
Count of elements : 1985
Stream size : 52.3 KiB (0%)
Title : Traditional Chinese (TTG-R3)
Language : Chinese
Default : No
Forced : No


Menu
00:00:00.000 : :00:00:00.000
00:06:33.393 : :00:06:33.393
00:20:15.673 : :00:20:15.673
00:31:06.239 : :00:31:06.239
00:43:58.010 : :00:43:58.010
01:02:27.535 : :01:02:27.535
01:20:45.924 : :01:20:45.924
01:29:40.750 : :01:29:40.750
01:41:02.807 : :01:41:02.807
01:48:06.647 : :01:48:06.647
02:06:34.962 : :02:06:34.962
02:09:54.620 : :02:09:54.620
02038795547097074055_thumb.png 43677228188864023229_thumb.png 63558865998716398712_thumb.png
游客,如果您要查看本帖隐藏内容请回复


回复

使用道具 举报

金鸡奖主角

高清币
159
金钱
3683
鲜花
0
在线时间
725 小时
最后登录
2019-4-23
发表于 2019-2-4 00:56:46 | 显示全部楼层

我看不错噢 谢谢楼主!中国高清论坛越来越好!
回复 支持 反对

使用道具 举报

知名艺人

高清币
20
金钱
165
鲜花
0
在线时间
42 小时
最后登录
2019-2-4
发表于 2019-2-4 00:57:25 | 显示全部楼层
感谢楼主分享
回复 支持 反对

使用道具 举报

永恒神话

高清币
314
金钱
16132
鲜花
0
在线时间
1106 小时
最后登录
2019-4-22
发表于 2019-2-4 01:44:30 | 显示全部楼层

楼主太厉害了!楼主,电影应该很好看我觉得中国高清论坛真是个好地方!
回复 支持 反对

使用道具 举报

永恒神话

高清币
314
金钱
16132
鲜花
0
在线时间
1106 小时
最后登录
2019-4-22
发表于 2019-2-4 01:46:18 | 显示全部楼层

既然你诚信诚意的推荐了,那我就勉为其难的看看吧!中国高清论坛不走平凡路。
回复 支持 反对

使用道具 举报

永恒神话

高清币
314
金钱
16132
鲜花
0
在线时间
1106 小时
最后登录
2019-4-22
发表于 2019-2-4 01:46:40 | 显示全部楼层

楼主,大恩不言谢了!中国高清论坛是最棒的!
回复 支持 反对

使用道具 举报

永恒神话

高清币
43482
金钱
77849
鲜花
0
在线时间
1498 小时
最后登录
2019-4-22
发表于 2019-2-4 01:49:04 | 显示全部楼层

楼主太厉害了!楼主,电影应该很好看我觉得中国高清论坛真是个好地方!
回复 支持 反对

使用道具 举报

永恒神话

高清币
43482
金钱
77849
鲜花
0
在线时间
1498 小时
最后登录
2019-4-22
发表于 2019-2-4 01:49:23 | 显示全部楼层

这东西我收了!谢谢楼主!中国高清论坛真好!
回复 支持 反对

使用道具 举报

知名艺人

高清币
50
金钱
298
鲜花
0
在线时间
127 小时
最后登录
2019-4-22
发表于 2019-2-4 02:16:56 | 显示全部楼层
楼主发贴辛苦了,谢谢楼主分享!我觉得中国高清论坛是注册对了!
回复 支持 反对

使用道具 举报

超级明星

高清币
1974
金钱
8626
鲜花
0
在线时间
329 小时
最后登录
2019-4-23
发表于 2019-2-4 03:30:17 | 显示全部楼层
楼主发贴辛苦了,谢谢楼主分享!我觉得中国高清论坛是注册对了!
回复 支持 反对

使用道具 举报

懒得打字嘛,点击右侧快捷回复 【右侧内容,后台自定义】
您需要登录后才可以回帖 登录 | 立即注册

本版积分规则

QQ|手机版|小黑屋|中国高清论坛 ( 黔ICP备16007815号-1 )

GMT+8, 2019-4-23 11:53 , Processed in 0.050769 second(s), 29 queries .

Powered by Discuz! X3.4

© 2001-2017 Comsenz Inc.

快速回复 返回顶部 返回列表