请选择 进入手机版 | 继续访问电脑版

中国高清论坛

 找回密码
 立即注册
搜索
查看: 1442|回复: 265

[动作片] 霸主/霸王行动Overlord.2018.720p.WEB-DL.XviD.AC3-FGT 3.45GB

  [复制链接]

龙行天下

高清币
33072
金钱
7152
鲜花
30
在线时间
1446 小时
最后登录
2019-4-12
发表于 2019-2-4 18:21:56 | 显示全部楼层 |阅读模式
poster_opt.jpg
◎译  名 霸主/霸王行动/君主/大君主行动/大君主之役(港)
◎片  名 Overlord
◎年  代 2019
◎国  家 美国
◎类  别 动作/科幻/恐怖/战争
◎语  言 英语
◎IMDb评分 7.1/10 from 18,618 users
◎IMDB链接 https://www.imdb.com/title/tt4530422/
◎片  长 1 h 50 min
◎导  演 朱利叶斯·艾弗里 Julius Avery
◎主  演 约翰·艾德坡 Jovan Adepo
       怀亚特·罗素 Wyatt Russell
       马蒂尔德·奥利维耶 Mathilde Ollivier


◎简  介 

  诺曼底“霸王行动”前夕,美国伞兵深入敌人后方,执行一项对入侵的成功至关重要的任务。但当接近目标时,他们开始意识到,在这个纳粹占领的村庄里发生的事情比简单军事行动要复杂许多,他们将与超自然力量斗争,而这些是纳粹实验的一部分。

Video
ID : 0
Format : MPEG-4 Visual
Format profile : Simple@L5
Format settings, BVOP : No
Format settings, QPel : No
Format settings, GMC : No warppoints
Format settings, Matrix : Default (H.263)
Codec ID : XVID
Codec ID/Hint : XviD
Duration : 1 h 50 min
Bit rate : 4 084 kb/s
Width : 1 280 pixels
Height : 530 pixels
Display aspect ratio : 2.40:1
Frame rate : 24.000 FPS
Color space : YUV
Chroma subsampling : 4:2:0
Bit depth : 8 bits
Scan type : Progressive
Compression mode : Lossy
Bits/(Pixel*Frame) : 0.251
Stream size : 3.15 GiB (91%)
Writing library : Lavc58.1.100

Audio
ID : 1
Format : AC-3
Format/Info : Audio Coding 3
Commercial name : Dolby Digital
Codec ID : 2000
Duration : 1 h 49 min
Bit rate mode : Constant
Bit rate : 384 kb/s
Channel(s) : 6 channels
Channel layout : L R C LFE Ls Rs
Sampling rate : 48.0 kHz
Frame rate : 31.250 FPS (1536 SPF)
Bit depth : 16 bits
Compression mode : Lossy
Stream size : 301 MiB (9%)
Alignment : Aligned on interleaves
Interleave, duration : 42 ms (1.01 video frame)
Interleave, preload duration : 512 ms
Service kind : Complete Main

08380922549031057009_thumb.png 39108862188077699528_thumb.png 67648795108461324544_thumb.png
游客,如果您要查看本帖隐藏内容请回复

回复

使用道具 举报

禁止发言

高清币
24
金钱
28
鲜花
0
在线时间
1 小时
最后登录
2019-2-4
发表于 2019-2-4 18:51:10 | 显示全部楼层
提示: 作者被禁止或删除 内容自动屏蔽
回复 支持 1 反对 0

使用道具 举报

人气偶像

高清币
0
金钱
1679
鲜花
0
在线时间
445 小时
最后登录
2019-4-22
发表于 2019-2-4 18:33:45 | 显示全部楼层
RE: 霸主/霸王行动Overlord.2018.720p.WEB-DL.XviD.AC3-FGT 3.45GB [[url=]修改[/url]]
回复 支持 反对

使用道具 举报

人气偶像

高清币
18
金钱
1228
鲜花
0
在线时间
618 小时
最后登录
2019-4-21
发表于 2019-2-4 18:40:25 | 显示全部楼层
谢谢楼主分享
回复 支持 反对

使用道具 举报

金鸡奖主角

高清币
1081
金钱
3739
鲜花
0
在线时间
1492 小时
最后登录
2019-4-22
发表于 2019-2-4 18:59:04 | 显示全部楼层
谢谢楼主分享
回复 支持 反对

使用道具 举报

金鸡奖主角

高清币
221
金钱
3464
鲜花
0
在线时间
361 小时
最后登录
2019-4-22
发表于 2019-2-4 19:02:35 | 显示全部楼层

楼主太厉害了!楼主,电影应该很好看我觉得中国高清论坛真是个好地方!
回复 支持 反对

使用道具 举报

永恒神话

高清币
315
金钱
16133
鲜花
0
在线时间
1106 小时
最后登录
2019-4-22
发表于 2019-2-4 19:22:48 | 显示全部楼层

楼主太厉害了!楼主,电影应该很好看我觉得中国高清论坛真是个好地方!
回复 支持 反对

使用道具 举报

金鸡奖主角

高清币
1278
金钱
3785
鲜花
0
在线时间
415 小时
最后登录
2019-4-22
发表于 2019-2-4 19:24:59 | 显示全部楼层
楼主发贴辛苦了,谢谢楼主分享!我觉得中国高清论坛是注册对了!
回复 支持 反对

使用道具 举报

人气偶像

高清币
286
金钱
1247
鲜花
0
在线时间
113 小时
最后登录
2019-4-22
发表于 2019-2-4 19:26:14 | 显示全部楼层

我看不错噢 谢谢楼主!中国高清论坛越来越好!
回复 支持 反对

使用道具 举报

永恒神话

高清币
9527
金钱
14450
鲜花
0
在线时间
861 小时
最后登录
2019-4-22
发表于 2019-2-4 19:30:48 | 显示全部楼层
楼主发贴辛苦了,谢谢楼主分享!我觉得中国高清论坛是注册对了!
回复 支持 反对

使用道具 举报

懒得打字嘛,点击右侧快捷回复 【右侧内容,后台自定义】
您需要登录后才可以回帖 登录 | 立即注册

本版积分规则

QQ|手机版|小黑屋|中国高清论坛 ( 黔ICP备16007815号-1 )

GMT+8, 2019-4-23 00:50 , Processed in 0.050630 second(s), 30 queries .

Powered by Discuz! X3.4

© 2001-2017 Comsenz Inc.

快速回复 返回顶部 返回列表