请选择 进入手机版 | 继续访问电脑版

中国高清论坛

 找回密码
 立即注册
搜索
查看: 364|回复: 55

[惊悚片] 玩具盒The.Toybox.2018.720p.BluRay.x264-GETiT 3.27GB

[复制链接]

龙行天下

高清币
33115
金钱
7152
鲜花
30
在线时间
1446 小时
最后登录
2019-4-12
发表于 2019-2-8 20:50:31 | 显示全部楼层 |阅读模式
p2518356150.jpg
导演: Tom Nagel
编剧: 杰夫·丹顿
主演: 米莎·巴顿 / Brian Nagel / 杰夫·丹顿
类型: 惊悚 / 恐怖
制片国家/地区: 美国
语言: 英语
上映日期: 2018-09-18(美国)
片长: 95分钟
IMDb链接: tt6053472



◎简  介


  Charles has purchased a vintage RV with the hopes of taking his family on a road trip to reconcile with his two sons, a promise he made to his wife before she recently passed. His oldest son, Steve, his wife Jennifer (Denise Richards), their daughter and family dog, are excited for the excursion, however, his youngest son Jay is less than enthusiastic. Along the way, the family picks up Samantha (Mischa Barton) and her brother, broken down on the side of the highway. Before they get them to a service station in the next town, however, Charles insists on taking a detour into the desert to visit a landmark and they soon get lost. Now stranded in the desert, the unsuspecting group is blindsided by the terrible secrets they discover within the walls of the RV and find themselves in the fight of their lives.[code]GET iT !!!


Video
ID : 1
Format : AVC
Format/Info : Advanced Video Codec
Format profile : High@L4.1
Format settings : CABAC / 5 Ref Frames
Format settings, CABAC : Yes
Format settings, ReFrames : 5 frames
Codec ID : V_MPEG4/ISO/AVC
Duration : 1 h 34 min
Bit rate : 4 174 kb/s
Width : 1 280 pixels
Height : 544 pixels
Display aspect ratio : 2.35:1
Frame rate mode : Constant
Frame rate : 23.976 (24000/1001) FPS
Color space : YUV
Chroma subsampling : 4:2:0
Bit depth : 8 bits
Scan type : Progressive
Bits/(Pixel*Frame) : 0.250
Stream size : 2.76 GiB (84%)
Writing library : x264 core 157 r2935 545de2f
Encoding settings : cabac=1 / ref=5 / deblock=1:0:0 / analyse=0x3:0x133 / me=umh / subme=7 / psy=1 / psy_rd=1.00:0.00 / mixed_ref=1 / me_range=16 / chroma_me=1 / trellis=2 / 8x8dct=1 / cqm=0 / deadzone=21,11 / fast_pskip=0 / chroma_qp_offset=-2 / threads=17 / lookahead_threads=2 / sliced_threads=0 / nr=0 / decimate=1 / interlaced=0 / bluray_compat=0 / constrained_intra=0 / bframes=3 / b_pyramid=2 / b_adapt=1 / b_bias=0 / direct=3 / weightb=1 / open_gop=0 / weightp=2 / keyint=250 / keyint_min=23 / scenecut=40 / intra_refresh=0 / rc_lookahead=50 / rc=2pass / mbtree=1 / bitrate=4174 / ratetol=1.0 / qcomp=0.60 / qpmin=0 / qpmax=69 / qpstep=4 / cplxblur=20.0 / qblur=0.5 / ip_ratio=1.40 / aq=1:1.00
Language : English
Default : Yes
Forced : No


Audio
ID : 2
Format : DTS
Format/Info : Digital Theater Systems
Codec ID : A_DTS
Duration : 1 h 34 min
Bit rate mode : Constant
Bit rate : 768 kb/s
Channel(s) : 6 channels
Channel layout : C L R Ls Rs LFE
Sampling rate : 48.0 kHz
Frame rate : 93.750 FPS (512 SPF)
Bit depth : 24 bits
Compression mode : Lossy
Stream size : 521 MiB (16%)
Title : dts
Language : English
Default : Yes
Forced : No


Menu
00:00:00.000 : en:00:00:00.000
00:05:24.032 : en:00:05:24.032
00:16:14.891 : en:00:16:14.891
00:28:43.263 : en:00:28:43.263
00:34:25.146 : en:00:34:25.146
00:41:08.174 : en:00:41:08.174
00:51:29.628 : en:00:51:29.628
01:01:02.909 : en:01:01:02.909
01:06:37.493 : en:01:06:37.493
01:12:13.037 : en:01:12:13.037
01:23:07.441 : en:01:23:07.441
01:32:49.272 : en:01:32:49.272
44877942619258632050_thumb.jpg
游客,如果您要查看本帖隐藏内容请回复


回复

使用道具 举报

超级明星

高清币
948
金钱
7736
鲜花
0
在线时间
2952 小时
最后登录
2019-4-25
发表于 2019-2-8 20:53:58 | 显示全部楼层

楼主太厉害了!楼主,电影应该很好看我觉得中国高清论坛真是个好地方!
回复 支持 反对

使用道具 举报

人气偶像

高清币
0
金钱
1257
鲜花
0
在线时间
338 小时
最后登录
2019-4-21
发表于 2019-2-8 20:57:37 | 显示全部楼层
感谢分享好电影
回复 支持 反对

使用道具 举报

superstar

高清币
4861
金钱
10655
鲜花
0
在线时间
1022 小时
最后登录
2019-4-23
发表于 2019-2-8 21:03:05 | 显示全部楼层
感谢楼主分享
回复 支持 反对

使用道具 举报

知名艺人

高清币
0
金钱
250
鲜花
0
在线时间
50 小时
最后登录
2019-4-13
发表于 2019-2-8 21:18:40 | 显示全部楼层
反复反复反复反复反复反复
回复 支持 反对

使用道具 举报

知名艺人

高清币
3
金钱
286
鲜花
0
在线时间
123 小时
最后登录
2019-3-24
发表于 2019-2-8 21:39:56 | 显示全部楼层
梵蒂冈电饭锅电饭锅地方郭德纲
回复 支持 反对

使用道具 举报

超级明星

高清币
759
金钱
7465
鲜花
0
在线时间
2163 小时
最后登录
2019-4-25
发表于 2019-2-8 21:40:25 | 显示全部楼层

这东西我收了!谢谢楼主!中国高清论坛真好!
回复 支持 反对

使用道具 举报

知名艺人

高清币
3
金钱
286
鲜花
0
在线时间
123 小时
最后登录
2019-3-24
发表于 2019-2-8 21:41:26 | 显示全部楼层
太热尔特让他热特任天堂
回复 支持 反对

使用道具 举报

天王巨星

高清币
59
金钱
1839
鲜花
0
在线时间
247 小时
最后登录
2019-4-23
发表于 2019-2-8 22:01:27 | 显示全部楼层
每天都来中国高清论坛看看有什么电影!
回复 支持 反对

使用道具 举报

天王巨星

高清币
59
金钱
1839
鲜花
0
在线时间
247 小时
最后登录
2019-4-23
发表于 2019-2-8 22:02:02 | 显示全部楼层
每天都来中国高清论坛看看有什么电影!
回复 支持 反对

使用道具 举报

懒得打字嘛,点击右侧快捷回复 【右侧内容,后台自定义】
您需要登录后才可以回帖 登录 | 立即注册

本版积分规则

QQ|手机版|小黑屋|中国高清论坛 ( 黔ICP备16007815号-1 )

GMT+8, 2019-4-25 09:52 , Processed in 0.056152 second(s), 29 queries .

Powered by Discuz! X3.4

© 2001-2017 Comsenz Inc.

快速回复 返回顶部 返回列表