请选择 进入手机版 | 继续访问电脑版

中国高清论坛

 找回密码
 立即注册
搜索
查看: 587|回复: 67

[喜剧片] 雷霆之路Thunder.Road.2018.720p.BluRay.x264-SiNNERS 4.37GB

  [复制链接]

龙行天下

高清币
38510
金钱
9680
鲜花
50
在线时间
2380 小时
最后登录
2019-9-16
发表于 2019-2-8 21:11:50 | 显示全部楼层 |阅读模式
p2518356150.jpg
◎译  名 雷霆之路
◎片  名 Thunder Road
◎年  代 2018
◎国  家 美国
◎类  别 剧情/喜剧
◎语  言 英语
◎IMDb评分  8.5/10 from 2126 users
◎IMDb链接  https://www.imdb.com/title/tt7738450//
◎片  长 1 h 30 min
◎导  演 吉姆·卡明斯 Jim Cummings
◎主  演 吉姆·卡明斯 Jim Cummings
       乔斯琳·德波尔 Jocelyn DeBoer
       Kendal Farr
       Nican Robinson
      
◎简  介

     A police officer faces a personal meltdown following a divorce and the death of his mother.
Video
ID : 1
Format : AVC
Format/Info : Advanced Video Codec
Format profile : High@L4.1
Format settings : CABAC / 9 Ref Frames
Format settings, CABAC : Yes
Format settings, ReFrames : 9 frames
Codec ID : V_MPEG4/ISO/AVC
Duration : 1 h 30 min
Bit rate : 5 420 kb/s
Width : 1 280 pixels
Height : 640 pixels
Display aspect ratio : 2.000
Frame rate mode : Constant
Frame rate : 23.976 (24000/1001) FPS
Color space : YUV
Chroma subsampling : 4:2:0
Bit depth : 8 bits
Scan type : Progressive
Bits/(Pixel*Frame) : 0.276
Stream size : 3.42 GiB (78%)
Writing library : x264 core 157 r2935 545de2f
Encoding settings : cabac=1 / ref=9 / deblock=1:-3:-3 / analyse=0x3:0x113 / me=umh / subme=8 / psy=1 / psy_rd=1.00:0.00 / mixed_ref=1 / me_range=16 / chroma_me=1 / trellis=2 / 8x8dct=1 / cqm=0 / deadzone=21,11 / fast_pskip=0 / chroma_qp_offset=-2 / threads=18 / lookahead_threads=3 / sliced_threads=0 / nr=0 / decimate=1 / interlaced=0 / bluray_compat=0 / constrained_intra=0 / bframes=3 / b_pyramid=2 / b_adapt=1 / b_bias=0 / direct=1 / weightb=1 / open_gop=0 / weightp=2 / keyint=250 / keyint_min=23 / scenecut=40 / intra_refresh=0 / rc_lookahead=40 / rc=2pass / mbtree=1 / bitrate=5420 / ratetol=1.0 / qcomp=0.60 / qpmin=0 / qpmax=69 / qpstep=4 / cplxblur=20.0 / qblur=0.5 / ip_ratio=1.40 / aq=1:1.00
Language : English
Default : Yes
Forced : No

Audio
ID : 2
Format : DTS
Format/Info : Digital Theater Systems
Codec ID : A_DTS
Duration : 1 h 30 min
Bit rate mode : Constant
Bit rate : 1 509 kb/s
Channel(s) : 6 channels
Channel layout : C L R Ls Rs LFE
Sampling rate : 48.0 kHz
Frame rate : 93.750 FPS (512 SPF)
Bit depth : 24 bits
Compression mode : Lossy
Stream size : 974 MiB (22%)
Language : English
Default : Yes
Forced : No

Menu
00:00:00.000 : en:00:00:00.000
00:13:09.247 : en:00:13:09.247
00:19:59.573 : en:00:19:59.573
00:32:05.132 : en:00:32:05.132
00:39:26.864 : en:00:39:26.864
00:50:17.848 : en:00:50:17.848
01:01:48.997 : en:01:01:48.997
01:09:06.517 : en:01:09:06.517
01:18:22.448 : en:01:18:22.448

12601617170387218450_thumb.jpg
游客,如果您要查看本帖隐藏内容请回复,您还可以免扣高清币免回复下载:https://www.85lou.com/plugin.php?id=wyfaka_url:url

回复

使用道具 举报

金鸡奖主角

高清币
17
金钱
3795
鲜花
0
在线时间
344 小时
最后登录
2019-9-2
发表于 2019-2-8 21:21:54 | 显示全部楼层
楼主发贴辛苦了,谢谢楼主分享!我觉得中国高清论坛是注册对了!
回复 支持 反对

使用道具 举报

superstar

高清币
2695
金钱
11735
鲜花
0
在线时间
1558 小时
最后登录
2019-9-17
发表于 2019-2-8 21:26:13 | 显示全部楼层
感谢楼主分享
回复 支持 反对

使用道具 举报

超级明星

高清币
1488
金钱
8111
鲜花
0
在线时间
2416 小时
最后登录
2019-9-17
发表于 2019-2-8 21:40:43 | 显示全部楼层

既然你诚信诚意的推荐了,那我就勉为其难的看看吧!中国高清论坛不走平凡路。
回复 支持 反对

使用道具 举报

金鸡奖主角

高清币
596
金钱
4760
鲜花
0
在线时间
608 小时
最后登录
2019-9-16
发表于 2019-2-8 21:47:42 | 显示全部楼层

这东西我收了!谢谢楼主!中国高清论坛真好!
回复 支持 反对

使用道具 举报

人气偶像

高清币
1
金钱
1932
鲜花
0
在线时间
370 小时
最后登录
2019-9-15
发表于 2019-2-8 22:00:53 | 显示全部楼层
ddddddddddddddddddddddddddddddddddddddd
回复 支持 反对

使用道具 举报

影坛巨星

高清币
1306
金钱
8430
鲜花
0
在线时间
1639 小时
最后登录
2019-9-17
发表于 2019-2-8 22:01:00 | 显示全部楼层
楼主发贴辛苦了,谢谢楼主分享!我觉得中国高清论坛是注册对了!
回复 支持 反对

使用道具 举报

人气偶像

高清币
5
金钱
784
鲜花
0
在线时间
116 小时
最后登录
2019-5-26
发表于 2019-2-8 22:09:05 | 显示全部楼层
谢谢LZ
互相关心
回复 支持 反对

使用道具 举报

天王巨星

高清币
51
金钱
2000
鲜花
0
在线时间
273 小时
最后登录
2019-9-15
发表于 2019-2-8 22:15:48 | 显示全部楼层
每天都来中国高清论坛看看有什么电影!
回复 支持 反对

使用道具 举报

金鸡奖主角

高清币
839
金钱
3088
鲜花
0
在线时间
263 小时
最后登录
2019-9-17
发表于 2019-2-8 22:17:07 | 显示全部楼层
楼主发贴辛苦了,谢谢楼主分享!我觉得中国高清论坛是注册对了!
回复 支持 反对

使用道具 举报

懒得打字嘛,点击右侧快捷回复 【右侧内容,后台自定义】
您需要登录后才可以回帖 登录 | 立即注册

本版积分规则

QQ|手机版|小黑屋|中国高清论坛 ( 黔ICP备16007815号-1 )

GMT+8, 2019-9-17 20:49 , Processed in 0.053226 second(s), 26 queries .

Powered by Discuz! X3.4

© 2001-2017 Comsenz Inc.

快速回复 返回顶部 返回列表