请选择 进入手机版 | 继续访问电脑版

中国高清论坛

 找回密码
 立即注册
搜索
查看: 425|回复: 44

[科幻片] 与天空抗争Fighting.the.Sky.2018.720p.AMZN.WEBRip.DDP2.0.x264-NTG 2.48GB

[复制链接]

龙行天下

高清币
33077
金钱
7152
鲜花
30
在线时间
1446 小时
最后登录
2019-4-12
发表于 2019-2-8 22:46:49 | 显示全部楼层 |阅读模式
poster_opt.jpg
导演: Conrad Faraj
编剧: David Matthew Cummings / Conrad Faraj / Roger Jones
主演: Angie Cole / Roger Conners / Jinette Faraj
类型: 科幻
制片国家/地区: 美国
语言: 英语
上映日期: 2018-08-11(美国)
片长: 97分钟
IMDb链接: tt4782322

与天空抗争的剧情简介 · · · · · ·  Strange other-worldly sounds are echoing around the world. A group of researchers, led by expert ufologist Lorraine Gardner, begin an expedition to track down the point of origin from which the sounds emerge. Yet as their journey deepens, they begin to discover more than they bargained for.

Video
ID : 1
Format : AVC
Format/Info : Advanced Video Codec
Format profile : High@L3.1
Format settings : CABAC / 4 Ref Frames
Format settings, CABAC : Yes
Format settings, ReFrames : 4 frames
Codec ID : V_MPEG4/ISO/AVC
Duration : 1 h 37 min
Bit rate mode : Constant
Bit rate : 3 423 kb/s
Nominal bit rate : 6 000 kb/s
Width : 1 248 pixels
Height : 520 pixels
Display aspect ratio : 2.40:1
Frame rate mode : Constant
Frame rate : 23.976 (24000/1001) FPS
Color space : YUV
Chroma subsampling : 4:2:0
Bit depth : 8 bits
Scan type : Progressive
Bits/(Pixel*Frame) : 0.220
Stream size : 2.33 GiB (94%)
Default : Yes
Forced : No
Color range : Limited
Color primaries : BT.709
Transfer characteristics : BT.709
Matrix coefficients : BT.709

Audio
ID : 2
Format : E-AC-3
Format/Info : Enhanced AC-3
Commercial name : Dolby Digital Plus
Codec ID : A_EAC3
Duration : 1 h 37 min
Bit rate mode : Constant
Bit rate : 224 kb/s
Channel(s) : 2 channels
Channel layout : L R
Sampling rate : 48.0 kHz
Frame rate : 31.250 FPS (1536 SPF)
Compression mode : Lossy
Stream size : 156 MiB (6%)
Language : English
Service kind : Complete Main
Default : Yes
Forced : No

Text
ID : 3
Format : UTF-8
Codec ID : S_TEXT/UTF8
Codec ID/Info : UTF-8 Plain Text
Duration : 1 h 33 min
Bit rate : 64 b/s
Count of elements : 1642
Stream size : 44.2 KiB (0%)
Title : SDH
Language : English
Default : No
Forced : No

18496587622130587113_thumb.png 75142074864876293466_thumb.png
游客,如果您要查看本帖隐藏内容请回复

回复

使用道具 举报

人气偶像

高清币
7
金钱
1491
鲜花
0
在线时间
203 小时
最后登录
2019-4-9
发表于 2019-2-8 22:51:11 | 显示全部楼层

其实我一直觉得楼主的品味不错!呵呵!中国高清论坛太棒了!
回复 支持 反对

使用道具 举报

人气偶像

高清币
1
金钱
1468
鲜花
0
在线时间
266 小时
最后登录
2019-4-20
发表于 2019-2-8 22:53:36 | 显示全部楼层
111111111111111111111
回复 支持 反对

使用道具 举报

金鸡奖主角

高清币
-2
金钱
3843
鲜花
0
在线时间
706 小时
最后登录
2019-4-6
发表于 2019-2-8 22:59:34 | 显示全部楼层
谢谢楼主分享科幻。
回复 支持 反对

使用道具 举报

金鸡奖主角

高清币
-2
金钱
3843
鲜花
0
在线时间
706 小时
最后登录
2019-4-6
发表于 2019-2-8 22:59:57 | 显示全部楼层
好电影再赞。
回复 支持 反对

使用道具 举报

超级明星

高清币
1230
金钱
7904
鲜花
0
在线时间
1539 小时
最后登录
2019-4-22
发表于 2019-2-8 23:04:28 | 显示全部楼层
楼主发贴辛苦了,谢谢楼主分享!我觉得中国高清论坛是注册对了!
回复 支持 反对

使用道具 举报

天王巨星

高清币
74
金钱
2712
鲜花
0
在线时间
303 小时
最后登录
2019-4-22
发表于 2019-2-8 23:08:18 | 显示全部楼层

楼主太厉害了!楼主,电影应该很好看我觉得中国高清论坛真是个好地方!
回复 支持 反对

使用道具 举报

人气偶像

高清币
266
金钱
815
鲜花
0
在线时间
98 小时
最后登录
2019-3-24
发表于 2019-2-8 23:28:11 | 显示全部楼层
楼主太厉害了!楼主,电影应该很好看我觉得
中国高清论坛
真是个好地方!

回复 支持 反对

使用道具 举报

永恒神话

高清币
9452
金钱
32287
鲜花
10
在线时间
2112 小时
最后登录
2019-4-23
发表于 2019-2-9 01:29:45 | 显示全部楼层
感谢分享精彩好电影!!!
回复 支持 反对

使用道具 举报

金鸡奖主角

高清币
509
金钱
3116
鲜花
0
在线时间
528 小时
最后登录
2019-4-22
发表于 2019-2-9 07:18:20 | 显示全部楼层
楼主发贴辛苦了,谢谢楼主分享!我觉得中国高清论坛是注册对了!
回复 支持 反对

使用道具 举报

懒得打字嘛,点击右侧快捷回复 【右侧内容,后台自定义】
您需要登录后才可以回帖 登录 | 立即注册

本版积分规则

QQ|手机版|小黑屋|中国高清论坛 ( 黔ICP备16007815号-1 )

GMT+8, 2019-4-23 11:53 , Processed in 0.049913 second(s), 29 queries .

Powered by Discuz! X3.4

© 2001-2017 Comsenz Inc.

快速回复 返回顶部 返回列表