请选择 进入手机版 | 继续访问电脑版

中国高清论坛

 找回密码
 立即注册
搜索
查看: 391|回复: 47

[冒险片] 罗宾汉Robin.Hood.2018.720p.AMZN.WEBRip.DDP5.1.x264-NTG 4.28GB

[复制链接]

龙行天下

高清币
38510
金钱
9680
鲜花
50
在线时间
2380 小时
最后登录
2019-9-16
发表于 2019-2-8 22:52:45 | 显示全部楼层 |阅读模式
poster_opt.jpg
导演: 奥图·巴瑟赫斯特
编剧: 本·钱德勒 / 戴维·詹姆斯·凯利
主演: 塔伦·埃格顿 / 杰米·福克斯 / 本·门德尔森 / 伊芙·休森/ 詹米·多南 / 蒂姆·明钦 / 保罗·安德森 / F·默里·亚伯拉罕 / 斯考特·格瑞南 / 拉腊·罗西 / 布乔恩·本辛森 / 亚森·阿图 / 乔什·赫德曼 / 拉斯洛·阿隆 / 罗德里克·希尔 / 赖云 / 埃文特·斯特朗
类型: 动作 / 冒险
制片国家/地区: 美国
语言: 英语
上映日期: 2018-11-21(美国)
片长: 116分钟
又名: 罗宾汉:起源 / 罗宾汉崛起(台) / 箭神·第一战(港) / Robin Hood: Origins
IMDb链接: tt4532826

罗宾汉的剧情简介 · · · · · ·  由奥图·巴瑟赫斯特(《浴血黑帮》《黑镜》)执导,艾格顿饰演罗宾汉,剧情将发生在他成为传奇侠盗英雄之前,聚焦他作为十字军战士时期,加盟荒野沼地的一支反抗军大胆起义,扳倒腐败堕落的英国统治政权。杰米·福克斯将饰演罗宾汉的战友小约翰,伊芙·休森饰罗宾汉的情人梅德·玛丽安,杰米·多南饰威尔·斯加雷特,是罗宾汉同父异母/同母异父的兄弟。Joby Harold(《亚瑟王:斗兽争霸》)操刀剧本,将于莱昂纳多·迪卡普里奥、珍妮佛·戴维森等联合制片

Video
ID : 1
Format : AVC
Format/Info : Advanced Video Codec
Format profile : High@L3.1
Format settings : CABAC / 4 Ref Frames
Format settings, CABAC : Yes
Format settings, ReFrames : 4 frames
Codec ID : V_MPEG4/ISO/AVC
Duration : 1 h 56 min
Bit rate mode : Constant
Bit rate : 4 633 kb/s
Nominal bit rate : 6 000 kb/s
Width : 1 248 pixels
Height : 520 pixels
Display aspect ratio : 2.40:1
Frame rate mode : Constant
Frame rate : 23.976 (24000/1001) FPS
Color space : YUV
Chroma subsampling : 4:2:0
Bit depth : 8 bits
Scan type : Progressive
Bits/(Pixel*Frame) : 0.298
Stream size : 3.76 GiB (88%)
Default : Yes
Forced : No
Color range : Limited
Color primaries : BT.709
Transfer characteristics : BT.709
Matrix coefficients : BT.709

Audio
ID : 2
Format : E-AC-3
Format/Info : Enhanced AC-3
Commercial name : Dolby Digital Plus
Codec ID : A_EAC3
Duration : 1 h 56 min
Bit rate mode : Constant
Bit rate : 640 kb/s
Channel(s) : 6 channels
Channel layout : L R C LFE Ls Rs
Sampling rate : 48.0 kHz
Frame rate : 31.250 FPS (1536 SPF)
Compression mode : Lossy
Stream size : 532 MiB (12%)
Language : English
Service kind : Complete Main
Default : Yes
Forced : No

Text
ID : 3
Format : UTF-8
Codec ID : S_TEXT/UTF8
Codec ID/Info : UTF-8 Plain Text
Duration : 1 h 46 min
Bit rate : 52 b/s
Count of elements : 1597
Stream size : 40.9 KiB (0%)
Title : SDH
Language : English
Default : No
Forced : No

13729609347445870517_thumb.png 37570121977290227620_thumb.png 68652463307758481882_thumb.png
游客,如果您要查看本帖隐藏内容请回复,您还可以免扣高清币免回复下载:https://www.85lou.com/plugin.php?id=wyfaka_url:url

回复

使用道具 举报

人气偶像

高清币
240
金钱
904
鲜花
0
在线时间
124 小时
最后登录
2019-9-16
发表于 2019-2-8 23:29:08 | 显示全部楼层
楼主太厉害了!楼主,电影应该很好看我觉得
中国高清论坛
真是个好地方!

回复 支持 反对

使用道具 举报

知名艺人

高清币
0
金钱
166
鲜花
0
在线时间
28 小时
最后登录
2019-3-15
发表于 2019-2-8 23:49:12 | 显示全部楼层

这个帖子不回对不起自己!我想我是一天也不能离开中国高清论坛
回复 支持 反对

使用道具 举报

天王巨星

高清币
128
金钱
2109
鲜花
0
在线时间
243 小时
最后登录
2019-9-16
发表于 2019-2-9 01:06:44 | 显示全部楼层
感谢楼主分享
回复 支持 反对

使用道具 举报

永恒神话

高清币
12826
金钱
37377
鲜花
10
在线时间
2485 小时
最后登录
2019-9-17
发表于 2019-2-9 01:29:00 | 显示全部楼层
感谢分享精彩好电影!!!
回复 支持 反对

使用道具 举报

永恒神话

高清币
11002
金钱
16794
鲜花
0
在线时间
1126 小时
最后登录
2019-9-17
发表于 2019-2-9 08:49:15 | 显示全部楼层
感谢楼主分享精彩电影!
回复 支持 反对

使用道具 举报

金鸡奖主角

高清币
361
金钱
2712
鲜花
0
在线时间
319 小时
最后登录
2019-8-25
发表于 2019-2-9 09:54:37 | 显示全部楼层
论坛不能没有像楼主这样的人才啊!我会一直支持中国高清论坛。
回复 支持 反对

使用道具 举报

金鸡奖主角

高清币
694
金钱
3491
鲜花
0
在线时间
986 小时
最后登录
2019-9-17
发表于 2019-2-9 09:56:18 | 显示全部楼层
楼主发贴辛苦了,谢谢楼主分享!我觉得中国高清论坛是注册对了!
回复 支持 反对

使用道具 举报

永恒神话

高清币
10893
金钱
13413
鲜花
0
在线时间
819 小时
最后登录
2019-9-17
发表于 2019-2-9 10:40:20 | 显示全部楼层

感谢楼主的无私分享!要想中国高清论坛好 就靠你我他
回复 支持 反对

使用道具 举报

金鸡奖主角

高清币
261
金钱
3248
鲜花
0
在线时间
900 小时
最后登录
2019-9-17
发表于 2019-2-9 13:30:25 | 显示全部楼层

这东西我收了!谢谢楼主!中国高清论坛真好!
回复 支持 反对

使用道具 举报

懒得打字嘛,点击右侧快捷回复 【右侧内容,后台自定义】
您需要登录后才可以回帖 登录 | 立即注册

本版积分规则

QQ|手机版|小黑屋|中国高清论坛 ( 黔ICP备16007815号-1 )

GMT+8, 2019-9-17 20:16 , Processed in 0.057663 second(s), 26 queries .

Powered by Discuz! X3.4

© 2001-2017 Comsenz Inc.

快速回复 返回顶部 返回列表