请选择 进入手机版 | 继续访问电脑版

中国高清论坛

 找回密码
 立即注册
搜索
查看: 324|回复: 40

[恐怖片] 傀儡The.Golem.2018.720p.AMZN.WEBRip.DDP5.1.x264-NTG 1.96GB

[复制链接]

龙行天下

高清币
33025
金钱
7152
鲜花
30
在线时间
1446 小时
最后登录
2019-4-12
发表于 2019-2-8 22:56:51 | 显示全部楼层 |阅读模式
poster_opt.jpg
导演: Doron Paz / Yoav Paz
编剧: Ariel Cohen
主演: 哈尼·弗森伯格 / Ishai Golan / Brynie Furstenberg / Adi Kvetner / Lenny Ravich / Alex Tritenko / Olga Safronova
类型: 恐怖
制片国家/地区: 英国
语言: 英语
上映日期: 2018-08-27(英国)
片长: 85分钟
又名: 泥人
IMDb链接: tt8329290

傀儡的剧情简介 · · · · · ·  聚焦犹太传说中的怪物“泥人”,讲述一个拉比(智者)的儿子的妻子Hanna为保护她的家族,抵御外来侵略者,召唤了一种极其危险的存在。而她从泥土中创造并赋予生命的这种东西,却以可怕的方式与她悲惨的过去相连。Hanna根本不知道:她创造了一个多么冷酷的怪物。



Video
ID : 1
Format : AVC
Format/Info : Advanced Video Codec
Format profile : High@L3.1
Format settings : CABAC / 4 Ref Frames
Format settings, CABAC : Yes
Format settings, ReFrames : 4 frames
Codec ID : V_MPEG4/ISO/AVC
Duration : 1 h 34 min
Bit rate mode : Constant
Bit rate : 2 315 kb/s
Nominal bit rate : 6 000 kb/s
Width : 1 280 pixels
Height : 544 pixels
Display aspect ratio : 2.35:1
Original display aspect ratio : 2.35:1
Frame rate mode : Constant
Frame rate : 23.976 (24000/1001) FPS
Color space : YUV
Chroma subsampling : 4:2:0
Bit depth : 8 bits
Scan type : Progressive
Bits/(Pixel*Frame) : 0.139
Stream size : 1.53 GiB (78%)
Default : Yes
Forced : No
Color range : Limited
Color primaries : BT.709
Transfer characteristics : BT.709
Matrix coefficients : BT.709

Audio
ID : 2
Format : E-AC-3
Format/Info : Enhanced AC-3
Commercial name : Dolby Digital Plus
Codec ID : A_EAC3
Duration : 1 h 34 min
Bit rate mode : Constant
Bit rate : 640 kb/s
Channel(s) : 6 channels
Channel layout : L R C LFE Ls Rs
Sampling rate : 48.0 kHz
Frame rate : 31.250 FPS (1536 SPF)
Compression mode : Lossy
Stream size : 434 MiB (22%)
Language : English
Service kind : Complete Main
Default : Yes
Forced : No

Text
ID : 3
Format : UTF-8
Codec ID : S_TEXT/UTF8
Codec ID/Info : UTF-8 Plain Text
Duration : 1 h 30 min
Bit rate : 20 b/s
Count of elements : 598
Stream size : 13.7 KiB (0%)
Title : SDH
Language : English
Default : No
Forced : No
13084571803389779878_thumb.png 14005276532368290770_thumb.png 51498045923968786479_thumb.png
游客,如果您要查看本帖隐藏内容请回复


回复

使用道具 举报

永恒神话

高清币
2557
金钱
16100
鲜花
0
在线时间
2547 小时
最后登录
2019-4-21
发表于 2019-2-8 23:02:18 | 显示全部楼层

这东西我收了!谢谢楼主!中国高清论坛真好!
回复 支持 反对

使用道具 举报

永恒神话

高清币
1915
金钱
15423
鲜花
0
在线时间
1454 小时
最后登录
2019-4-21
发表于 2019-2-8 23:05:05 | 显示全部楼层
楼主发贴辛苦了,谢谢楼主分享!我觉得中国高清论坛是注册对了!
回复 支持 反对

使用道具 举报

知名艺人

高清币
49
金钱
454
鲜花
0
在线时间
96 小时
最后登录
2019-4-19
发表于 2019-2-8 23:31:17 | 显示全部楼层
楼主发贴辛苦了,谢谢楼主分享!我觉得中国高清论坛是注册对了!
回复 支持 反对

使用道具 举报

人气偶像

高清币
266
金钱
815
鲜花
0
在线时间
98 小时
最后登录
2019-3-24
发表于 2019-2-8 23:31:58 | 显示全部楼层
楼主太厉害了!楼主,电影应该很好看我觉得
中国高清论坛
真是个好地方!

回复 支持 反对

使用道具 举报

超级明星

高清币
188
金钱
11108
鲜花
0
在线时间
2137 小时
最后登录
2019-4-21
发表于 2019-2-8 23:34:39 | 显示全部楼层

楼主太厉害了!楼主,电影应该很好看我觉得中国高清论坛真是个好地方!
回复 支持 反对

使用道具 举报

天王巨星

高清币
177
金钱
2933
鲜花
0
在线时间
653 小时
最后登录
2019-4-19
发表于 2019-2-9 00:47:57 | 显示全部楼层
楼主发贴辛苦了,谢谢楼主分享!我觉得中国高清论坛是注册对了!
回复 支持 反对

使用道具 举报

永恒神话

高清币
9436
金钱
32243
鲜花
10
在线时间
2108 小时
最后登录
2019-4-21
发表于 2019-2-9 01:27:37 | 显示全部楼层
感谢分享精彩好电影!!!
回复 支持 反对

使用道具 举报

人气偶像

高清币
114
金钱
942
鲜花
0
在线时间
249 小时
最后登录
2019-4-21
发表于 2019-2-9 09:16:21 | 显示全部楼层
下载›『720P高清电影下载』›傀儡The.Golem.2018.720p.AMZN.W ...›参与/回复主题

RE: 傀儡The.Golem.2018.720p.AMZN.WEBRip.DDP5.1.x264-NTG 1.96GB





回复 支持 反对

使用道具 举报

金鸡奖主角

高清币
637
金钱
3748
鲜花
0
在线时间
619 小时
最后登录
2019-4-18
发表于 2019-2-9 13:23:20 | 显示全部楼层
看上去不错的样子
本贴由隐藏贴回复机快速回复
回复 支持 反对

使用道具 举报

懒得打字嘛,点击右侧快捷回复 【右侧内容,后台自定义】
您需要登录后才可以回帖 登录 | 立即注册

本版积分规则

QQ|手机版|小黑屋|中国高清论坛 ( 黔ICP备16007815号-1 )

GMT+8, 2019-4-21 18:30 , Processed in 0.052543 second(s), 29 queries .

Powered by Discuz! X3.4

© 2001-2017 Comsenz Inc.

快速回复 返回顶部 返回列表