请选择 进入手机版 | 继续访问电脑版

中国高清论坛

 找回密码
 立即注册
搜索
查看: 451|回复: 58

[惊悚片] 法律的阴影Gun.City.2018.720p.BluRay.x264-USURY 5.46GB

  [复制链接]

龙行天下

高清币
38510
金钱
9680
鲜花
50
在线时间
2380 小时
最后登录
2019-9-16
发表于 2019-2-8 23:14:08 | 显示全部楼层 |阅读模式
poster_opt.jpg
导演: 丹尼·德拉托雷
编剧: 帕西·阿米祖加
主演: Jaime Lorente / 威廉·米勒 / 帕科·图斯 / 米歇尔·珍娜/ 路易斯·托萨尔 / 欧内斯特·艾戴里欧 / 阿德里亚娜·托雷维哈诺 / 曼诺罗·索洛 / 费尔南多·卡约 / 文森特·罗米洛 / José Manuel Poga / 佩普·托萨 / Paula del Río / 里卡多·德巴雷罗 / Xosé Barato
类型: 惊悚
制片国家/地区: 西班牙
语言: 西班牙语
上映日期: 2018-10-11(西班牙)
片长: 126分钟
又名: Gun City
IMDb链接: tt7104984

法律的阴影的剧情简介 · · · · · ·  西班牙惊悚片,背景是1921年的巴塞罗那,无政府主义者和警方之间的动荡未歇,暴乱黑帮,贪腐警察,罢工劳工,女权示威群众,一片混乱之际,又有一车军武在运输途中遭到偷窃,情势犹如一颗炸弹,随意爆炸,一名警员为双方效力,好查出是谁偷了可能点燃内战的军方武器...

Video
ID : 1
Format : AVC
Format/Info : Advanced Video Codec
Format profile : High@L4.1
Format settings : CABAC / 5 Ref Frames
Format settings, CABAC : Yes
Format settings, ReFrames : 5 frames
Codec ID : V_MPEG4/ISO/AVC
Duration : 2 h 5 min
Bit rate : 4 701 kb/s
Width : 1 280 pixels
Height : 536 pixels
Display aspect ratio : 2.40:1
Frame rate mode : Constant
Frame rate : 24.000 FPS
Color space : YUV
Chroma subsampling : 4:2:0
Bit depth : 8 bits
Scan type : Progressive
Bits/(Pixel*Frame) : 0.285
Stream size : 4.13 GiB (76%)
Writing library : x264 core 157 r2935 545de2f
Encoding settings : cabac=1 / ref=5 / deblock=1:-3:-3 / analyse=0x3:0x133 / me=umh / subme=9 / psy=1 / psy_rd=1.00:0.00 / mixed_ref=1 / me_range=16 / chroma_me=1 / trellis=2 / 8x8dct=1 / cqm=0 / deadzone=21,11 / fast_pskip=0 / chroma_qp_offset=-2 / threads=12 / lookahead_threads=1 / sliced_threads=0 / nr=0 / decimate=1 / interlaced=0 / bluray_compat=0 / constrained_intra=0 / bframes=3 / b_pyramid=2 / b_adapt=1 / b_bias=0 / direct=3 / weightb=1 / open_gop=0 / weightp=2 / keyint=240 / keyint_min=24 / scenecut=40 / intra_refresh=0 / rc_lookahead=50 / rc=2pass / mbtree=1 / bitrate=4701 / ratetol=1.0 / qcomp=0.60 / qpmin=0 / qpmax=69 / qpstep=4 / cplxblur=20.0 / qblur=0.5 / ip_ratio=1.40 / aq=1:1.00
Language : English
Default : Yes
Forced : No

Audio
ID : 2
Format : DTS
Format/Info : Digital Theater Systems
Codec ID : A_DTS
Duration : 2 h 5 min
Bit rate mode : Constant
Bit rate : 1 509 kb/s
Channel(s) : 6 channels
Channel layout : C L R Ls Rs LFE
Sampling rate : 48.0 kHz
Frame rate : 93.750 FPS (512 SPF)
Bit depth : 24 bits
Compression mode : Lossy
Stream size : 1.33 GiB (24%)
Language : Spanish
Default : Yes
Forced : No

Text
ID : 3
Format : UTF-8
Codec ID : S_TEXT/UTF8
Codec ID/Info : UTF-8 Plain Text
Duration : 1 h 57 min
Bit rate : 40 b/s
Count of elements : 1258
Stream size : 34.8 KiB (0%)
Title : English
Language : English
Default : Yes
Forced : Yes

Menu
00:00:00.000 : en:00:00:00.000
00:09:33.208 : en:00:09:33.208
00:20:21.125 : en:00:20:21.125
00:30:51.625 : en:00:30:51.625
00:41:00.750 : en:00:41:00.750
00:51:33.250 : en:00:51:33.250
01:00:51.875 : en:01:00:51.875
01:10:31.875 : en:01:10:31.875
01:21:49.500 : en:01:21:49.500
01:31:30.750 : en:01:31:30.750
01:42:20.708 : en:01:42:20.708
01:51:29.750 : en:01:51:29.750
01:59:30.250 : en:01:59:30.250

05681491616219513220_thumb.jpg
游客,如果您要查看本帖隐藏内容请回复,您还可以免扣高清币免回复下载:https://www.85lou.com/plugin.php?id=wyfaka_url:url



回复

使用道具 举报

天王巨星

高清币
536
金钱
1933
鲜花
0
在线时间
166 小时
最后登录
2019-9-16
发表于 2019-2-8 23:25:08 | 显示全部楼层

这东西我收了!谢谢楼主!中国高清论坛真好!
回复 支持 反对

使用道具 举报

人气偶像

高清币
240
金钱
904
鲜花
0
在线时间
124 小时
最后登录
2019-9-16
发表于 2019-2-8 23:29:45 | 显示全部楼层
楼主太厉害了!楼主,电影应该很好看我觉得
中国高清论坛
真是个好地方!

回复 支持 反对

使用道具 举报

金鸡奖主角

高清币
392
金钱
5019
鲜花
0
在线时间
1800 小时
最后登录
2019-9-17
发表于 2019-2-8 23:46:05 | 显示全部楼层
楼主太厉害了!
回复 支持 反对

使用道具 举报

天王巨星

高清币
3
金钱
2176
鲜花
0
在线时间
418 小时
最后登录
2019-9-7
发表于 2019-2-8 23:47:18 | 显示全部楼层
的点点滴滴多多多多多多多多多多多多
回复 支持 反对

使用道具 举报

金鸡奖主角

高清币
661
金钱
5194
鲜花
0
在线时间
484 小时
最后登录
2019-9-17
发表于 2019-2-8 23:55:17 | 显示全部楼层
楼主发贴辛苦了,谢谢楼主分享!我觉得中国高清论坛是注册对了!
回复 支持 反对

使用道具 举报

金鸡奖主角

高清币
5
金钱
3964
鲜花
0
在线时间
468 小时
最后登录
2019-9-17
发表于 2019-2-9 00:54:58 | 显示全部楼层
谢谢楼主的分享了
回复 支持 反对

使用道具 举报

永恒神话

高清币
12826
金钱
37377
鲜花
10
在线时间
2485 小时
最后登录
2019-9-17
发表于 2019-2-9 01:22:01 | 显示全部楼层
感谢分享精彩好电影!!!
回复 支持 反对

使用道具 举报

人气偶像

高清币
1
金钱
971
鲜花
0
在线时间
172 小时
最后登录
2019-9-7
发表于 2019-2-9 02:44:15 | 显示全部楼层
楼主分享的高清电影太好了
回复 支持 反对

使用道具 举报

人气偶像

高清币
102
金钱
1038
鲜花
0
在线时间
281 小时
最后登录
2019-9-4
发表于 2019-2-9 09:18:51 | 显示全部楼层
源尽情下载›『720P高清电影下载』›法律的阴影Gun.City.2018.720p.B ...›参与/回复主题

RE: 法律的阴影Gun.City.2018.720p.BluRay.x264-USURY 5.46GB





回复 支持 反对

使用道具 举报

懒得打字嘛,点击右侧快捷回复 【右侧内容,后台自定义】
您需要登录后才可以回帖 登录 | 立即注册

本版积分规则

QQ|手机版|小黑屋|中国高清论坛 ( 黔ICP备16007815号-1 )

GMT+8, 2019-9-17 20:30 , Processed in 0.078383 second(s), 26 queries .

Powered by Discuz! X3.4

© 2001-2017 Comsenz Inc.

快速回复 返回顶部 返回列表