请选择 进入手机版 | 继续访问电脑版

中国高清论坛

 找回密码
 立即注册
搜索
查看: 800|回复: 134

[恐怖片] 小岛 The.Isle.2019.720p.AMZN.WEBRip.DDP5.1.x264-NTG 2.1GB

  [复制链接]

龙行天下

高清币
33111
金钱
7152
鲜花
30
在线时间
1446 小时
最后登录
2019-4-12
发表于 2019-2-11 21:51:52 | 显示全部楼层 |阅读模式
f885c205d31f8a9b597d1df52b1938dc.jpg

◎译  名 小岛
◎片  名 The Isle
◎年  代 2017
◎产  地 英国
◎类  别 恐怖 / 奇幻
◎语  言 英语
◎上映日期 2019-02-08(美国)
◎IMDb评分 8.5/10 from 8 users
◎片  长 96分钟
◎导  演 Matthew Butler Hart
◎编  剧 Matthew Butler Hart
◎主  演 康勒斯·希尔 Conleth Hill
      阿历克斯·哈赛尔 Alex Hassell
      Tori Butler-Hart



◎简  介  

  On a remote island off the west coast of Scotland in 1846 a heavy storm hits, causing a ship to sink. Three survivors row through a thick early morning mist, lost and disorientated. The mist begins to clear and The Isle appears before them. They soon discover that it is almost abandoned except for four sole residents: an old harbour man, a farmer, his niece and a young mad woman. Once rested and recovered the sailors are desperate to leave and return to the mainland, but the promised boat never appears. One of them starts to investigate and learns of a tragedy at sea that occurred five years previously causing several young men from the island to perish. When his two shipmates meet with accidents, the myth of a ghostly siren haunting the island leads him to uncover the truth whilst he battles to save his own life.


Video
ID : 1
Format : AVC
Format/Info : Advanced Video Codec
Format profile : High@L3.1
Format settings : CABAC / 4 Ref Frames
Format settings, CABAC : Yes
Format settings, ReFrames : 4 frames
Codec ID : V_MPEG4/ISO/AVC
Duration : 1 h 35 min
Bit rate mode : Constant
Bit rate : 2 507 kb/s
Nominal bit rate : 6 000 kb/s
Width : 1 280 pixels
Height : 720 pixels
Display aspect ratio : 16:9
Frame rate mode : Constant
Frame rate : 24.000 FPS
Color space : YUV
Chroma subsampling : 4:2:0
Bit depth : 8 bits
Scan type : Progressive
Bits/(Pixel*Frame) : 0.113
Stream size : 1.68 GiB (80%)
Default : Yes
Forced : No
Color range : Limited
Color primaries : BT.709
Transfer characteristics : BT.709
Matrix coefficients : BT.709

Audio
ID : 2
Format : E-AC-3
Format/Info : Enhanced AC-3
Commercial name : Dolby Digital Plus
Codec ID : A_EAC3
Duration : 1 h 35 min
Bit rate mode : Constant
Bit rate : 640 kb/s
Channel(s) : 6 channels
Channel layout : L R C LFE Ls Rs
Sampling rate : 48.0 kHz
Frame rate : 31.250 FPS (1536 SPF)
Compression mode : Lossy
Stream size : 438 MiB (20%)
Language : English
Service kind : Complete Main
Default : Yes
Forced : No

Text
ID : 3
Format : UTF-8
Codec ID : S_TEXT/UTF8
Codec ID/Info : UTF-8 Plain Text
Duration : 1 h 34 min
Bit rate : 40 b/s
Count of elements : 985
Stream size : 27.8 KiB (0%)
Title : SDH
Language : English
Default : No
Forced : No

64bfc845ee1667bf19328f5363d01ca8.jpg 1fc1a305d8d7e8a3e15f80934612ccf3.jpg
游客,如果您要查看本帖隐藏内容请回复

回复

使用道具 举报

金鸡奖主角

高清币
487
金钱
4159
鲜花
0
在线时间
818 小时
最后登录
2019-4-24
发表于 2019-2-11 22:04:13 | 显示全部楼层
楼主发贴辛苦了,谢谢楼主分享!我觉得中国高清论坛是注册对了!
回复 支持 反对

使用道具 举报

人气偶像

高清币
615
金钱
932
鲜花
0
在线时间
122 小时
最后登录
2019-4-24
发表于 2019-2-11 22:11:07 | 显示全部楼层
感谢楼主的分享 感谢中国高清论坛
回复 支持 反对

使用道具 举报

金鸡奖主角

高清币
578
金钱
3995
鲜花
0
在线时间
611 小时
最后登录
2019-4-24
发表于 2019-2-11 22:20:43 | 显示全部楼层
感谢楼主的分享 感谢中国高清论坛
回复 支持 反对

使用道具 举报

人气偶像

高清币
46
金钱
2093
鲜花
0
在线时间
945 小时
最后登录
2019-4-23
发表于 2019-2-11 22:23:03 | 显示全部楼层

楼主太厉害了!楼主,电影应该很好看我觉得中国高清论坛真是个好地方!
回复 支持 反对

使用道具 举报

好莱坞明星

高清币
944
金钱
6543
鲜花
0
在线时间
976 小时
最后登录
2019-4-24
发表于 2019-2-11 22:28:35 | 显示全部楼层

我看不错噢 谢谢楼主!中国高清论坛越来越好!
回复 支持 反对

使用道具 举报

跑龙套

高清币
13
金钱
17
鲜花
0
在线时间
0 小时
最后登录
2019-2-12
发表于 2019-2-11 22:35:07 | 显示全部楼层

少女汁源 很多资深老司机都在这 :www.82k.me   
回复 支持 反对

使用道具 举报

永恒神话

高清币
9317
金钱
16005
鲜花
0
在线时间
2533 小时
最后登录
2019-4-24
发表于 2019-2-11 22:35:21 | 显示全部楼层
楼主发贴辛苦了,谢谢楼主分享!我觉得中国高清论坛是注册对了!
回复 支持 反对

使用道具 举报

永恒神话

高清币
15865
金钱
23746
鲜花
0
在线时间
584 小时
最后登录
2019-4-16
发表于 2019-2-11 22:40:55 | 显示全部楼层
楼主发贴辛苦了,谢谢楼主分享!我觉得中国高清论坛是注册对了!
回复 支持 反对

使用道具 举报

人气偶像

高清币
45
金钱
1469
鲜花
0
在线时间
322 小时
最后登录
2019-4-24
发表于 2019-2-11 22:44:02 | 显示全部楼层
司中文拍摄新片avop-404 8.52G [[url=]修改[/url]
回复 支持 反对

使用道具 举报

懒得打字嘛,点击右侧快捷回复 【右侧内容,后台自定义】
您需要登录后才可以回帖 登录 | 立即注册

本版积分规则

QQ|手机版|小黑屋|中国高清论坛 ( 黔ICP备16007815号-1 )

GMT+8, 2019-4-25 05:46 , Processed in 0.052992 second(s), 29 queries .

Powered by Discuz! X3.4

© 2001-2017 Comsenz Inc.

快速回复 返回顶部 返回列表