请选择 进入手机版 | 继续访问电脑版

中国高清论坛

 找回密码
 立即注册
搜索
查看: 2583|回复: 244

[犯罪片] 小偷家族 Shoplifters.2018.JAPANESE.720p.BluRay.x264.DTS-FGT 5.92 GiB

  [复制链接]

超级版主

高清币
16731
金钱
38852
鲜花
0
在线时间
11956 小时
最后登录
2019-8-19
发表于 2019-3-22 18:55:14 | 显示全部楼层 |阅读模式


◎译  名 小偷家族
◎片  名 Shoplifters/Une Affaire de Famille/Manbiki kazoku/万引き家族
◎年  代 2018
◎国  家 日本
◎类  别 犯罪/剧情
◎语  言 日语
◎IMDb评分 8.1/10 from 13,396 users
◎IMDB链接 https://www.imdb.com/title/tt8075192
◎片  长 2 h 0 min
◎导  演 是枝裕和 Hirokazu Koreeda
◎主  演 中川雅也 Lily Franky
       安藤樱 Sakura Andô
       松冈茉优 Mayu Matsuoka
       城桧吏 Jyo Kairi
       佐佐木美结 Miyu Sasaki

◎简  介 

  做短工的治(中川雅也饰)与妻子信代(安藤樱饰)、儿子祥太(城桧吏 饰)、信代的妹妹亚纪(松冈茉优饰)以及老母亲初枝(树木希林饰)依靠母亲的养老保险,在破烂的平房中艰难度日。治与儿子祥太做扒手,亚纪打工补贴家用。某一天,治带回在住宅区被冻僵的少女由里(佐佐木美雪 饰),加入了他们原本就贫困潦倒的家庭中。一件事打破了原本的平衡,每个人心中隐藏的秘密和愿望也逐渐明朗。

花絮

.本片在日本国内329块银幕上同时公映,首周初登场排名第一位,观众满意度排名第七位。首映前两日总共动员约36万人入场观看,票房收入约为4.45亿日元。

.是枝裕和凭借该片荣获第71届戛纳电影节金棕榈大奖,这是日本电影21年来首次获得该奖项。此前,是枝裕和曾七次征战戛纳。其《无人知晓》和《如父如子》分别拿过戛纳的最佳男主角奖和评委会大奖。

.荣获金棕榈大奖的日本电影总共有五部,分别为衣笠贞之助的《地狱门》(1953)、黑泽明的《影武者》(1981)、今村昌平的《楢山节考》(1983)和《鳗鱼》(1997),以及这次的《小偷家族》。

.此次是实力派女演员安藤樱第一次参演是枝裕和的影片,同时也是她生子后接拍的第一部电影。其实是枝裕和原打算找年龄更大一点的女演员的,但偶然和安藤樱在某城市邂逅,交谈过后决定启用安藤樱。

.影片有一场一家人在海边玩耍的戏,Lily Franky看过剧照后评价,“这简直就是贫穷版的《海街日记》。”

.接受警方审讯时,安藤樱有一场即兴表演,曾令演对手戏的池胁千鹤接招困难。Lily Franky高度评价,“这场戏最佳女主角奖没问题啊!”另外,安藤原本和松冈茉优有一场厮打的戏,但最后被删掉了。

.《小偷家族》获金棕榈,安藤樱也功不可没。评审团主席凯特·布兰切特采访中称,安藤樱那场悔恨的哭戏入木三分,简直成为表演范本,而且评审团中许多女性演员由此成为她的俘虏。

.还是这场哭戏,是枝裕和回忆拍摄时,其中一名副导演感叹“就凭这场戏,参加这部电影拍摄就有意义。”是枝导演则回忆当时自己的鸡皮疙瘩都起来了,难以相信安藤樱能把哭戏表现成这样。

.是枝裕和的作品中,素人小演员往往是影片的亮点。城桧吏被评价具有影帝柳乐优弥的气质。佐佐木美雪则是在视听时,因为吃薯片的样子超级搞笑而被是枝裕和一眼相中。当然,片中也有吃薯片的镜头。

.为了贴近饰演的角色,Lily Franky在开拍前还专门去日光浴沙龙去晒皮肤。然而等看到试映后,他痛感“皮肤不黑,晒得远远不够。”

.在与斯皮尔伯格洽谈翻拍《如父如子》事宜期间,斯皮尔曾专门询问是枝裕和,“Lily Franky究竟是什么人?演员吗?”是枝导演答道,“他是插画家,也写小品文,还搞戏剧,却独独不是演员。”

.是枝裕和谢绝了日本文部科学大臣林芳正的当面祝贺,他此前在博客中写道“电影曾服务‘国策’而招致不幸,通过反省,那么与公权保持距离不恰是正确之举吗?”

.另外,安倍晋三并未对《小偷家族》发表祝贺。

.首映式上,安藤樱语不惊人死不休,称Lily Franky是比自己“拥有更多人生经验的,每天都睡在一起的老狗。”

获奖记录

奥斯卡金像奖(2019;第91届)
提名
·奥斯卡奖-最佳外语片是枝裕和 Hirokazu Koreeda  


戛纳电影节(2018;第71届)
获奖
·金棕榈奖是枝裕和 Hirokazu Koreeda  

美国金球奖(2019;第76届)
提名
·电影类-最佳外语片


  1. Video
  2. ID : 1
  3. Format : AVC
  4. Format/Info : Advanced Video Codec
  5. Format profile : [email]High@L4.1[/email]
  6. Format settings : CABAC / 4 Ref Frames
  7. Format settings, CABAC : Yes
  8. Format settings, ReFrames : 4 frames
  9. Codec ID : V_MPEG4/ISO/AVC
  10. Duration : 2 h 0 min
  11. Bit rate : 5 500 kb/s
  12. Width : 1 280 pixels
  13. Height : 690 pixels
  14. Display aspect ratio : 1.85:1
  15. Original display aspect ratio : 1.85:1
  16. Frame rate mode : Constant
  17. Frame rate : 23.976 (24000/1001) FPS
  18. Color space : YUV
  19. Chroma subsampling : 4:2:0
  20. Bit depth : 8 bits
  21. Scan type : Progressive
  22. Bits/(Pixel*Frame) : 0.260
  23. Stream size : 4.64 GiB (78%)
  24. Title : Shoplifters.2018.JAPANESE.720p.BluRay.x264.DTS-FGT
  25. Writing library : x264 core 148 r2795M aaa9aa8
  26. Encoding settings : cabac=1 / ref=4 / deblock=1:-2:-2 / analyse=0x3:0x113 / me=umh / subme=9 / psy=1 / psy_rd=1.00:0.15 / mixed_ref=1 / me_range=16 / chroma_me=1 / trellis=2 / 8x8dct=1 / cqm=0 / deadzone=21,11 / fast_pskip=1 / chroma_qp_offset=-3 / threads=24 / lookahead_threads=3 / sliced_threads=0 / nr=0 / decimate=1 / interlaced=0 / bluray_compat=0 / constrained_intra=0 / bframes=3 / b_pyramid=2 / b_adapt=1 / b_bias=0 / direct=3 / weightb=1 / open_gop=0 / weightp=2 / keyint=250 / keyint_min=25 / scenecut=40 / intra_refresh=0 / rc_lookahead=50 / rc=2pass / mbtree=1 / bitrate=5500 / ratetol=1.0 / qcomp=0.60 / qpmin=0 / qpmax=69 / qpstep=4 / cplxblur=20.0 / qblur=0.5 / vbv_maxrate=31250 / vbv_bufsize=31250 / nal_hrd=none / filler=0 / ip_ratio=1.40 / aq=1:1.00
  27. Language : English
  28. Default : Yes
  29. Forced : No

  30. Audio
  31. ID : 2
  32. Format : DTS
  33. Format/Info : Digital Theater Systems
  34. Codec ID : A_DTS
  35. Duration : 2 h 0 min
  36. Bit rate mode : Constant
  37. Bit rate : 1 509 kb/s
  38. Channel(s) : 6 channels
  39. Channel layout : C L R Ls Rs LFE
  40. Sampling rate : 48.0 kHz
  41. Frame rate : 93.750 FPS (512 SPF)
  42. Bit depth : 24 bits
  43. Compression mode : Lossy
  44. Stream size : 1.27 GiB (22%)
  45. Title : Shoplifters.2018.JAPANESE.720p.BluRay.x264.DTS-FGT
  46. Language : Japanese
  47. Default : No
  48. Forced : No

  49. Text
  50. ID : 3
  51. Format : UTF-8
  52. Codec ID : S_TEXT/UTF8
  53. Codec ID/Info : UTF-8 Plain Text
  54. Duration : 1 h 54 min
  55. Bit rate : 36 b/s
  56. Count of elements : 1211
  57. Stream size : 30.7 KiB (0%)
  58. Language : English
  59. Default : Yes
  60. Forced : Yes

  61. Menu
  62. 00:00:00.000 : en:Chapter 01
  63. 00:11:23.599 : en:Chapter 02
  64. 00:21:54.563 : en:Chapter 03
  65. 00:31:08.616 : en:Chapter 04
  66. 00:38:49.076 : en:Chapter 05
  67. 00:51:31.296 : en:Chapter 06
  68. 01:01:01.074 : en:Chapter 07
  69. 01:11:53.767 : en:Chapter 08
  70. 01:21:42.731 : en:Chapter 09
  71. 01:30:02.855 : en:Chapter 10
  72. 01:46:44.940 : en:Chapter 11
  73. 01:57:06.686 : en:Chapter 12
复制代码







游客,如果您要查看本帖隐藏内容请回复,您还可以免扣高清币免回复下载:https://www.85lou.com/plugin.php?id=wyfaka_url:url


回复

使用道具 举报

超级明星

高清币
1415
金钱
6163
鲜花
0
在线时间
856 小时
最后登录
2019-7-29
发表于 2019-3-22 20:17:07 | 显示全部楼层

这个帖子不回对不起自己!我想我是一天也不能离开中国高清论坛
回复 支持 1 反对 0

使用道具 举报

跑龙套

高清币
14
金钱
44
鲜花
0
在线时间
5 小时
最后登录
2019-7-22
发表于 2019-3-22 20:03:24 | 显示全部楼层
谢谢楼主666666666666666666666
回复 支持 1 反对 0

使用道具 举报

天王巨星

高清币
6
金钱
2976
鲜花
0
在线时间
502 小时
最后登录
2019-8-18
发表于 2019-3-22 19:01:04 | 显示全部楼层

这东西我收了!谢谢楼主!中国高清论坛真好!
回复 支持 反对

使用道具 举报

人气偶像

高清币
28
金钱
1369
鲜花
0
在线时间
517 小时
最后登录
2019-8-16
发表于 2019-3-22 19:02:08 | 显示全部楼层

我看不错噢 谢谢楼主!中国高清论坛越来越好!
回复 支持 反对

使用道具 举报

人气偶像

高清币
0
金钱
1580
鲜花
0
在线时间
298 小时
最后登录
2019-8-19
发表于 2019-3-22 19:04:55 | 显示全部楼层
感谢分享精彩电影
回复 支持 反对

使用道具 举报

天王巨星

高清币
376
金钱
2186
鲜花
0
在线时间
520 小时
最后登录
2019-8-18
发表于 2019-3-22 19:05:01 | 显示全部楼层

感谢楼主的无私分享!
回复 支持 反对

使用道具 举报

影坛巨星

高清币
190
金钱
10433
鲜花
0
在线时间
1718 小时
最后登录
2019-8-18
发表于 2019-3-22 19:24:17 | 显示全部楼层
楼主发贴辛苦了,谢谢楼主分享!我觉得中国高清论坛是注册对了!
回复 支持 反对

使用道具 举报

人气偶像

高清币
-2
金钱
1902
鲜花
0
在线时间
341 小时
最后登录
2019-8-18
发表于 2019-3-22 19:36:46 | 显示全部楼层
thanks for sharing....
回复 支持 反对

使用道具 举报

天王巨星

高清币
3
金钱
3030
鲜花
0
在线时间
782 小时
最后登录
2019-8-18
发表于 2019-3-22 19:53:42 | 显示全部楼层
按时发发发是
回复 支持 反对

使用道具 举报

金鸡奖主角

高清币
198
金钱
4481
鲜花
0
在线时间
2098 小时
最后登录
2019-8-16
发表于 2019-3-22 19:53:54 | 显示全部楼层
楼主发贴辛苦了,谢谢楼主分享!我觉得中国高清论坛是注册对了!
回复 支持 反对

使用道具 举报

懒得打字嘛,点击右侧快捷回复 【右侧内容,后台自定义】
您需要登录后才可以回帖 登录 | 立即注册

本版积分规则

QQ|手机版|小黑屋|中国高清论坛 ( 黔ICP备16007815号-1 )

GMT+8, 2019-8-19 09:55 , Processed in 0.060542 second(s), 26 queries .

Powered by Discuz! X3.4

© 2001-2017 Comsenz Inc.

快速回复 返回顶部 返回列表